<?xml version="1.0" standalone="no"?>
<!DOCTYPE svg PUBLIC "-//W3C//DTD SVG 1.1//EN" "http://www.w3.org/Graphics/SVG/1.1/DTD/svg11.dtd" >
<svg xmlns="http://www.w3.org/2000/svg" xmlns:xlink="http://www.w3.org/1999/xlink" version="1.1">
<metadata>
Created by FontForge 20201107 at Wed Apr 11 17:01:58 2018
 By Unknown
Copyright (c) 2018 by Russian Fonts. All rights reserved.
</metadata>
<defs>
<font id="RFDewi-Bold" horiz-adv-x="802" >
  <font-face 
    font-family="RF Dewi"
    font-weight="700"
    font-stretch="normal"
    units-per-em="1000"
    panose-1="0 0 8 0 0 0 0 0 0 0"
    ascent="800"
    descent="-200"
    x-height="524"
    cap-height="700"
    bbox="-207 -230 1201 949"
    underline-thickness="50"
    underline-position="-200"
    unicode-range="U+0020-277E"
  />
<missing-glyph horiz-adv-x="600" 
 />
    <glyph glyph-name="f_f.liga" unicode="ff" horiz-adv-x="705" 
d="M635 644q-38 0 -54 -17.5t-16 -55.5v-47h114v-100h-114v-424h-133v424h-181v-424h-133v424h-99v100h99v52q0 88 40.5 124t120.5 36q24 0 71 -5v-102q-30 3 -44 3q-29 0 -42 -16.5t-13 -58.5v-33h181v64q0 89 42.5 124.5t131.5 35.5q37 0 84 -5v-102q-33 3 -55 3z" />
    <glyph glyph-name="f_f_i.liga" unicode="ffi" horiz-adv-x="966" 
d="M432 588q0 88 40.5 124t121.5 36q38 0 81 -5v-102q-28 3 -49 3q-33 0 -47 -16t-14 -57v-47h110v-100h-110v-424h-133v424h-181v-424h-133v424h-99v100h99v52q0 88 40.5 124t120.5 36q24 0 71 -5v-102q-30 3 -44 3q-29 0 -42 -16.5t-13 -58.5v-33h181v64zM765 727h141
v-129h-141v129zM769 0v524h133v-524h-133z" />
    <glyph glyph-name="f_i.liga" unicode="fi" horiz-adv-x="652" 
d="M118 588q0 88 40.5 124t121.5 36q38 0 81 -5v-102q-29 3 -48 3q-33 0 -47.5 -16.5t-14.5 -56.5v-47h110v-100h-110v-424h-133v424h-99v100h99v64zM451 727h141v-129h-141v129zM455 0v524h134v-524h-134z" />
    <glyph glyph-name="f_l.liga" unicode="fl" horiz-adv-x="648" 
d="M118 588q0 88 40.5 124t121.5 36q38 0 81 -5v-102q-29 3 -48 3q-33 0 -47.5 -16.5t-14.5 -56.5v-47h110v-100h-110v-424h-133v424h-99v100h99v64zM453 736h134v-736h-134v736z" />
    <glyph glyph-name=".notdef" horiz-adv-x="600" 
 />
    <glyph glyph-name=".null" horiz-adv-x="0" 
 />
    <glyph glyph-name="nonmarkingreturn" horiz-adv-x="333" 
 />
    <glyph glyph-name="space" unicode=" " horiz-adv-x="234" 
 />
    <glyph glyph-name="exclam" unicode="!" horiz-adv-x="305" 
d="M208 230h-110l-14 470h137zM79 0v151h147v-151h-147z" />
    <glyph glyph-name="quotedbl" unicode="&#x22;" horiz-adv-x="394" 
d="M64 449l-10 251h114l-10 -251h-94zM237 449l-11 251h114l-10 -251h-93z" />
    <glyph glyph-name="numbersign" unicode="#" horiz-adv-x="616" 
d="M600 430h-118l-18 -159h108v-80h-117l-21 -193h-106l22 193h-119l-21 -193h-106l22 193h-110v80h119l18 159h-109v80h118l19 178h106l-20 -178h118l20 178h106l-20 -178h109v-80zM359 271l17 159h-118l-18 -159h119z" />
    <glyph glyph-name="dollar" unicode="$" horiz-adv-x="612" 
d="M577 191q0 -95 -64 -146t-175 -56v-85h-63v85q-235 15 -247 235l127 4q7 -117 120 -132v198l-80 27q-142 49 -142 184q0 93 62.5 142t159.5 54v84h63v-87q93 -11 151.5 -65.5t65.5 -145.5l-127 -8q-5 91 -90 111v-183l77 -26q81 -27 121.5 -71t40.5 -119zM188 516
q0 -59 87 -88v167q-87 -7 -87 -79zM338 95q104 11 104 87q0 32 -24 52.5t-80 38.5v-178z" />
    <glyph glyph-name="percent" unicode="%" horiz-adv-x="838" 
d="M28 532q0 81 47.5 127.5t127.5 46.5q81 0 128 -46.5t47 -127.5t-47 -128t-128 -47q-80 0 -127.5 47t-47.5 128zM132 0l488 700h85l-487 -700h-86zM123 532q0 -46 21.5 -72t58.5 -26t59 26t22 72t-22 71.5t-59 25.5t-58.5 -25.5t-21.5 -71.5zM460 169q0 81 47 127.5
t128 46.5t128 -46.5t47 -127.5t-47 -128t-128 -47q-80 0 -127.5 47t-47.5 128zM553 169q0 -46 22.5 -72t59.5 -26t59 26t22 72t-22 72t-59 26t-59.5 -26t-22.5 -72z" />
    <glyph glyph-name="ampersand" unicode="&#x26;" horiz-adv-x="664" 
d="M660 0h-140l-48 58q-73 -70 -197 -70q-121 0 -179.5 49t-58.5 132q0 36 9.5 64t34.5 53t44 39t61 42l18 13l-10 13q-82 100 -82 165q0 72 51.5 113t138.5 41t137.5 -43t50.5 -119q0 -49 -24 -86t-81 -76l-30 -21l120 -144q17 41 25 101h103q-18 -112 -59 -185zM292 443
l4 -4l18 13q61 43 61 93q0 35 -20.5 55t-52.5 20q-29 0 -49 -17t-20 -50q0 -24 13.5 -48t45.5 -62zM282 84q79 0 127 50l-145 175l-20 -15q-40 -28 -58 -54t-18 -60q0 -43 27.5 -69.5t86.5 -26.5z" />
    <glyph glyph-name="quotesingle" unicode="'" horiz-adv-x="222" 
d="M64 449l-10 251h114l-10 -251h-94z" />
    <glyph glyph-name="parenleft" unicode="(" horiz-adv-x="350" 
d="M342 736q-161 -168 -161 -442t161 -442h-113q-71 64 -121 174.5t-50 267.5t50 267.5t121 174.5h113z" />
    <glyph glyph-name="parenright" unicode=")" horiz-adv-x="350" 
d="M120 736q71 -64 121.5 -174.5t50.5 -267.5t-50.5 -267.5t-121.5 -174.5h-113q162 167 162 442t-162 442h113z" />
    <glyph glyph-name="asterisk" unicode="*" horiz-adv-x="395" 
d="M242 529l79 -30l56 -32l-35 -62l-56 33l-66 53l13 -83v-66h-71v66l13 83l-65 -53l-56 -33l-36 62l56 32l80 30l-80 31l-56 32l36 62l56 -33l65 -53l-13 83v65h71v-65l-13 -83l66 53l56 33l35 -62l-56 -32z" />
    <glyph glyph-name="plus" unicode="+" horiz-adv-x="500" 
d="M449 374v-89h-153v-149h-92v149h-152v89h152v149h92v-149h153z" />
    <glyph glyph-name="comma" unicode="," horiz-adv-x="272" 
d="M62 -128v279h148v-95l-88 -184h-60z" />
    <glyph glyph-name="hyphen" unicode="-" horiz-adv-x="377" 
d="M52 350h274v-103h-274v103z" />
    <glyph glyph-name="period" unicode="." horiz-adv-x="272" 
d="M62 0v151h148v-151h-148z" />
    <glyph glyph-name="slash" unicode="/" horiz-adv-x="421" 
d="M270 731h120l-255 -791h-120z" />
    <glyph glyph-name="zero" unicode="0" horiz-adv-x="649" 
d="M46 350q0 170 72 266t206 96t206 -96t72 -266t-72 -266t-206 -96t-206 96t-72 266zM182 350q0 -122 38 -187t104 -65t104.5 65t38.5 187t-38.5 187t-104.5 65t-104 -65t-38 -187z" />
    <glyph glyph-name="one" unicode="1" horiz-adv-x="432" 
d="M225 700h109v-700h-136v551l-161 -103v133z" />
    <glyph glyph-name="two" unicode="2" horiz-adv-x="557" 
d="M198 110h333v-110h-518v101l221 207q41 38 58.5 55t42 45.5t33.5 52t9 48.5q0 44 -26.5 68.5t-70.5 24.5q-50 0 -81.5 -36.5t-37.5 -112.5l-130 10q9 125 77 187t172 62q101 0 167 -52.5t66 -150.5q0 -61 -33.5 -115t-117.5 -131z" />
    <glyph glyph-name="three" unicode="3" horiz-adv-x="585" 
d="M490 373q62 -53 62 -155q0 -113 -76.5 -171.5t-193.5 -58.5q-111 0 -181.5 55t-81.5 162l131 9q16 -116 132 -116q62 0 98.5 31.5t36.5 88.5q0 54 -33 86t-99 32q-44 0 -106 -13v93l179 174h-303v110h477v-98l-200 -175q104 -7 158 -54z" />
    <glyph glyph-name="four" unicode="4" horiz-adv-x="629" 
d="M498 264h106v-110h-106v-154h-136v154h-342v101l258 445h220v-436zM152 264h210v362z" />
    <glyph glyph-name="five" unicode="5" horiz-adv-x="592" 
d="M332 470q101 0 163.5 -63t62.5 -174q0 -117 -74 -181t-192 -64q-106 0 -180 52.5t-89 149.5l131 9q11 -50 49 -75.5t89 -25.5q58 0 94.5 35.5t36.5 99.5q0 66 -37.5 100.5t-96.5 34.5q-86 0 -128 -66l-120 10l29 388h448v-110h-347l-14 -189q66 69 175 69z" />
    <glyph glyph-name="six" unicode="6" horiz-adv-x="629" 
d="M362 459q101 0 166.5 -62t65.5 -171q0 -111 -72 -174.5t-193 -63.5q-283 0 -283 352q0 185 74 278.5t210 93.5q102 0 165.5 -52t73.5 -146l-130 -9q-5 44 -34 71t-75 27q-83 0 -121 -89q-24 -57 -27 -145q56 90 180 90zM328 97q59 0 94.5 35.5t35.5 93.5q0 59 -35.5 94
t-94.5 35t-94.5 -35t-35.5 -94t35.5 -94t94.5 -35z" />
    <glyph glyph-name="seven" unicode="7" horiz-adv-x="568" 
d="M28 700h515v-93q-204 -300 -262 -607h-144q60 295 274 590h-383v110z" />
    <glyph glyph-name="eight" unicode="8" horiz-adv-x="623" 
d="M424 366q75 -20 119 -65.5t44 -114.5q0 -95 -80 -146.5t-195 -51.5q-116 0 -196 51.5t-80 146.5q0 69 44.5 114.5t120.5 65.5q-146 37 -146 163q0 88 74 135.5t183 47.5t182.5 -47.5t73.5 -135.5q0 -125 -144 -163zM312 606q-58 0 -92 -25.5t-34 -70.5t34 -70.5t92 -25.5
q57 0 91 25.5t34 70.5t-33.5 70.5t-91.5 25.5zM312 94q63 0 103.5 28.5t40.5 79.5t-40.5 79.5t-103.5 28.5t-103.5 -28.5t-40.5 -79.5t40.5 -79.5t103.5 -28.5z" />
    <glyph glyph-name="nine" unicode="9" horiz-adv-x="629" 
d="M298 712q142 0 213 -86.5t71 -265.5q0 -186 -73.5 -279t-209.5 -93q-102 0 -165.5 51.5t-73.5 145.5l130 10q6 -44 34.5 -71t74.5 -27q83 0 122 91q25 60 26 148q-58 -89 -181 -89q-101 0 -166 61.5t-65 168.5q0 109 72 172t191 63zM301 351q59 0 94 34.5t35 91.5
t-35 91.5t-94 34.5q-58 0 -94 -35t-36 -91q0 -57 35.5 -91.5t94.5 -34.5z" />
    <glyph glyph-name="colon" unicode=":" horiz-adv-x="272" 
d="M62 361v151h148v-151h-148zM62 0v151h148v-151h-148z" />
    <glyph glyph-name="semicolon" unicode=";" horiz-adv-x="272" 
d="M62 361v151h148v-151h-148zM62 -128v279h148v-95l-88 -184h-60z" />
    <glyph glyph-name="less" unicode="&#x3c;" horiz-adv-x="490" 
d="M423 550v-108l-279 -111l279 -102v-108l-375 151v114z" />
    <glyph glyph-name="equal" unicode="=" horiz-adv-x="504" 
d="M54 455h397v-89h-397v89zM54 281h397v-90h-397v90z" />
    <glyph glyph-name="greater" unicode="&#x3e;" horiz-adv-x="490" 
d="M67 550l375 -164v-114l-375 -151v108l279 102l-279 111v108z" />
    <glyph glyph-name="question" unicode="?" horiz-adv-x="530" 
d="M270 712q99 0 164 -47.5t65 -141.5q0 -59 -27.5 -101t-87.5 -84q-43 -30 -57.5 -48t-14.5 -47v-10h-127v15q0 55 17.5 86.5t66.5 62.5q33 23 48.5 35.5t32 37t16.5 51.5q0 40 -26.5 60t-69.5 20q-55 0 -88 -34t-39 -102l-126 9q9 119 77.5 178.5t175.5 59.5zM175 0v151
h148v-151h-148z" />
    <glyph glyph-name="at" unicode="@" horiz-adv-x="863" 
d="M508 465h99v-233q0 -51 15 -75t50 -24q89 0 89 141q0 136 -92 230t-237 94q-139 0 -234.5 -97t-95.5 -237q0 -152 93 -243.5t247 -91.5q115 0 198 47l31 -45q-95 -54 -229 -54q-180 0 -289 105t-109 282q0 166 111.5 276t276.5 110q170 0 278 -106t108 -267
q0 -104 -44 -159t-124 -55q-98 0 -130 79q-22 -44 -58.5 -66.5t-79.5 -22.5q-71 0 -118 57t-47 154t47.5 153.5t118.5 56.5q82 0 125 -71v62zM412 132q44 0 70 36t26 96t-26 96t-70 36t-70 -36t-26 -96t26 -96t70 -36z" />
    <glyph glyph-name="A" unicode="A" horiz-adv-x="699" 
d="M543 0l-51 163h-289l-51 -163h-138l228 700h215l229 -700h-143zM237 270h221l-110 354z" />
    <glyph glyph-name="B" unicode="B" horiz-adv-x="692" 
d="M427 360q103 -6 165.5 -48t62.5 -125q0 -91 -72.5 -139t-185.5 -48h-319v700h312q109 0 176.5 -43t67.5 -133q0 -152 -207 -164zM218 591v-183h160q56 0 86 25t30 68q0 42 -30 66t-88 24h-158zM384 109q131 0 131 97q0 46 -31 72t-93 26h-173v-195h166z" />
    <glyph glyph-name="C" unicode="C" horiz-adv-x="700" 
d="M41 350q0 164 84.5 263t235.5 99q125 0 203 -64.5t95 -174.5l-134 -12q-11 62 -55.5 99.5t-108.5 37.5q-89 0 -134.5 -71.5t-45.5 -176.5q0 -110 50.5 -179t138.5 -69q68 0 111 41.5t53 105.5l134 -9q-15 -118 -91.5 -185t-206.5 -67q-156 0 -242.5 98t-86.5 264z" />
    <glyph glyph-name="D" unicode="D" horiz-adv-x="722" 
d="M78 0v700h283q153 0 236.5 -93t83.5 -257t-83.5 -257t-236.5 -93h-283zM218 115h128q95 0 145 62.5t50 172.5t-50 172.5t-145 62.5h-128v-470z" />
    <glyph glyph-name="E" unicode="E" horiz-adv-x="643" 
d="M78 0v700h510v-110h-370v-182h290v-104h-290v-194h384v-110h-524z" />
    <glyph glyph-name="F" unicode="F" horiz-adv-x="612" 
d="M78 0v700h497v-115h-357v-188h286v-112h-286v-285h-140z" />
    <glyph glyph-name="G" unicode="G" horiz-adv-x="717" 
d="M41 350q0 164 84.5 263t235.5 99q120 0 197 -60.5t97 -164.5l-133 -11q-14 56 -57.5 89t-103.5 33q-89 0 -134.5 -71.5t-45.5 -176.5q0 -112 54.5 -180t155.5 -68q76 0 152 32v142h-177v94h304v-314q-141 -68 -282 -68q-167 0 -257 98t-90 264z" />
    <glyph glyph-name="H" unicode="H" horiz-adv-x="743" 
d="M524 700h140v-700h-140v299h-306v-299h-140v700h140v-287h306v287z" />
    <glyph glyph-name="I" unicode="I" horiz-adv-x="296" 
d="M78 0v700h140v-700h-140z" />
    <glyph glyph-name="J" unicode="J" horiz-adv-x="598" 
d="M36 216v70h130v-68q0 -57 28.5 -86.5t80.5 -29.5q104 0 104 126v472h140v-480q0 -116 -63 -174t-179 -58q-117 0 -179 59.5t-62 168.5z" />
    <glyph glyph-name="K" unicode="K" horiz-adv-x="697" 
d="M681 0h-167l-223 299h-73v-299h-140v700h140v-294h70l208 294h163l-260 -339z" />
    <glyph glyph-name="L" unicode="L" horiz-adv-x="582" 
d="M78 0v700h140v-585h333v-115h-473z" />
    <glyph glyph-name="M" unicode="M" horiz-adv-x="942" 
d="M621 700h243l-1 -700h-133v618l-164 -618h-190l-164 618v-618h-134v700h245l149 -617z" />
    <glyph glyph-name="N" unicode="N" horiz-adv-x="758" 
d="M546 700h133v-700h-234l-233 611v-611h-134v700h235l233 -611v611z" />
    <glyph glyph-name="O" unicode="O" horiz-adv-x="748" 
d="M41 350q0 167 87 264.5t246 97.5t246 -97.5t87 -264.5t-87 -264.5t-246 -97.5t-246 97.5t-87 264.5zM181 350q0 -111 51.5 -179.5t141.5 -68.5q91 0 142 68.5t51 179.5t-51 179.5t-142 68.5q-90 0 -141.5 -68.5t-51.5 -179.5z" />
    <glyph glyph-name="P" unicode="P" horiz-adv-x="669" 
d="M78 0v700h303q51 0 95 -12.5t80 -37.5t57 -69t21 -103q0 -114 -69 -164.5t-180 -50.5h-167v-263h-140zM218 371h146q130 0 130 107t-130 107h-146v-214z" />
    <glyph glyph-name="Q" unicode="Q" horiz-adv-x="748" 
d="M707 350q0 -204 -124 -299l65 -87l-92 -59l-73 97q-51 -14 -109 -14q-159 0 -246 97.5t-87 264.5t87 264.5t246 97.5t246 -97.5t87 -264.5zM374 102q12 0 32 2l-48 63l92 60l54 -71q63 68 63 194q0 111 -51 179.5t-142 68.5q-90 0 -141.5 -68.5t-51.5 -179.5t51.5 -179.5
t141.5 -68.5z" />
    <glyph glyph-name="R" unicode="R" horiz-adv-x="693" 
d="M672 0h-167l-186 271h-101v-271h-140v700h312q69 0 124 -20.5t92 -71.5t37 -126q0 -91 -48 -141t-129 -64zM218 588v-212h155q61 0 95.5 27t34.5 79t-34.5 79t-95.5 27h-155z" />
    <glyph glyph-name="S" unicode="S" horiz-adv-x="638" 
d="M28 228l131 5q9 -135 164 -135q60 0 100 20.5t40 66.5q0 33 -25.5 53t-87.5 40l-146 48q-150 49 -150 187q0 67 36 113.5t91 66t125 19.5q116 0 191.5 -57.5t82.5 -161.5l-131 -7q-4 53 -39 84.5t-105 31.5q-55 0 -83 -21t-28 -57q0 -31 22.5 -52t71.5 -37l146 -47
q84 -27 126.5 -72t42.5 -121q0 -104 -75.5 -155.5t-205.5 -51.5q-140 0 -214 61t-80 179z" />
    <glyph glyph-name="T" unicode="T" horiz-adv-x="617" 
d="M22 585v115h573v-115h-216v-585h-140v585h-217z" />
    <glyph glyph-name="U" unicode="U" horiz-adv-x="747" 
d="M78 272v428h140v-418q0 -179 155 -179q80 0 117.5 44.5t37.5 134.5v418h140v-428q0 -284 -295 -284t-295 284z" />
    <glyph glyph-name="V" unicode="V" horiz-adv-x="674" 
d="M516 700h143l-218 -700h-210l-215 700h146l176 -614z" />
    <glyph glyph-name="W" unicode="W" horiz-adv-x="993" 
d="M827 700h145l-157 -700h-207l-111 598l-115 -598h-208l-153 700h149l115 -592l115 592h197l112 -591z" />
    <glyph glyph-name="X" unicode="X" horiz-adv-x="677" 
d="M19 0l240 357l-219 343h160l139 -234l139 234h154l-218 -337l242 -363h-161l-160 253l-162 -253h-154z" />
    <glyph glyph-name="Y" unicode="Y" horiz-adv-x="688" 
d="M523 700h152l-261 -423v-277h-140v277l-262 423h159l173 -309z" />
    <glyph glyph-name="Z" unicode="Z" horiz-adv-x="611" 
d="M193 115h395v-115h-570v97l385 488h-360v115h535v-97z" />
    <glyph glyph-name="bracketleft" unicode="[" horiz-adv-x="330" 
d="M310 630h-107v-672h107v-106h-228v883h228v-105z" />
    <glyph glyph-name="backslash" unicode="\" horiz-adv-x="421" 
d="M150 731l256 -791h-120l-256 791h120z" />
    <glyph glyph-name="bracketright" unicode="]" horiz-adv-x="330" 
d="M248 735v-883h-228v106h107v672h-107v105h228z" />
    <glyph glyph-name="asciicircum" unicode="^" horiz-adv-x="416" 
d="M396 454h-100l-87 192l-88 -192h-101l128 246h120z" />
    <glyph glyph-name="underscore" unicode="_" horiz-adv-x="407" 
d="M11 -32h385v-88h-385v88z" />
    <glyph glyph-name="grave" unicode="`" horiz-adv-x="293" 
d="M253 588h-102l-111 147h138z" />
    <glyph glyph-name="a" unicode="a" horiz-adv-x="586" 
d="M38 143q0 145 220 166l137 14v26q0 42 -25 67t-76 25q-45 0 -73.5 -20t-31.5 -59h-122q3 91 66 132.5t161 41.5q113 0 174 -54t61 -161v-321h-125v95q-55 -107 -191 -107q-85 0 -130 43t-45 112zM171 150q0 -31 21.5 -50t63.5 -19q62 0 100.5 39.5t38.5 97.5v23l-120 -12
q-104 -10 -104 -79z" />
    <glyph glyph-name="b" unicode="b" horiz-adv-x="624" 
d="M61 0v736h134v-293q57 93 168 93q99 0 161.5 -73.5t62.5 -200.5t-62.5 -200.5t-160.5 -73.5q-57 0 -104 28.5t-74 82.5v-99h-125zM189 262q0 -76 36 -123t97 -47t97 47t36 123t-36 123t-97 47t-97 -47t-36 -123z" />
    <glyph glyph-name="c" unicode="c" horiz-adv-x="580" 
d="M36 262q0 131 70 202.5t191 71.5q100 0 167.5 -51t78.5 -143l-128 -11q-10 49 -41.5 75t-76.5 26q-59 0 -93.5 -45t-34.5 -125t35 -125t96 -45q49 0 80 27.5t41 77.5l129 -8q-11 -96 -79 -148.5t-171 -52.5q-123 0 -193.5 71t-70.5 203z" />
    <glyph glyph-name="d" unicode="d" horiz-adv-x="624" 
d="M36 262q0 127 63 200.5t162 73.5q111 0 167 -93v293h134v-736h-124v99q-28 -54 -74.5 -82.5t-103.5 -28.5q-98 0 -161 73.5t-63 200.5zM169 262q0 -77 35.5 -123.5t97.5 -46.5q61 0 96.5 46.5t35.5 123.5t-35.5 123.5t-96.5 46.5q-62 0 -97.5 -46.5t-35.5 -123.5z" />
    <glyph glyph-name="e" unicode="e" horiz-adv-x="597" 
d="M36 262q0 136 73.5 205t196.5 69q256 0 256 -298v-15h-391q7 -70 44.5 -105t97.5 -35q82 0 114 68l128 -8q-20 -74 -83 -114.5t-159 -40.5q-128 0 -202.5 68.5t-74.5 205.5zM171 308h259q-4 63 -36.5 98t-87.5 35t-90.5 -33.5t-44.5 -99.5z" />
    <glyph glyph-name="f" unicode="f" horiz-adv-x="391" 
d="M19 424v100h99v64q0 89 42.5 124.5t131.5 35.5q39 0 84 -5v-102q-33 3 -55 3q-38 0 -54 -17.5t-16 -55.5v-47h115v-100h-115v-424h-133v424h-99z" />
    <glyph glyph-name="g" unicode="g" horiz-adv-x="620" 
d="M36 273q0 119 64 191t163 72q116 0 171 -97v85h124v-463q0 -144 -62 -208.5t-191 -64.5q-107 0 -169.5 45t-65.5 135h123q3 -37 31.5 -58t80.5 -21q63 0 91 34t28 104v67q-55 -84 -161 -84q-99 0 -163 72t-64 191zM169 270q0 -73 36.5 -116t96.5 -43t96 43t36 116
t-36.5 117.5t-95.5 44.5t-96 -44.5t-37 -117.5z" />
    <glyph glyph-name="h" unicode="h" horiz-adv-x="607" 
d="M61 0v736h134v-288q56 88 174 88q90 0 135.5 -51.5t45.5 -150.5v-334h-133v293q0 66 -23.5 99.5t-76.5 33.5q-59 0 -90.5 -40.5t-31.5 -109.5v-276h-134z" />
    <glyph glyph-name="i" unicode="i" horiz-adv-x="261" 
d="M60 598v129h141v-129h-141zM64 0v524h133v-524h-133z" />
    <glyph glyph-name="j" unicode="j" horiz-adv-x="262" 
d="M60 598v129h142v-129h-142zM-35 -208v108q16 -2 40 -2q33 0 46 15.5t13 61.5v549h134v-582q0 -84 -33.5 -119t-116.5 -35q-25 0 -83 4z" />
    <glyph glyph-name="k" unicode="k" horiz-adv-x="577" 
d="M569 0h-165l-161 212h-48v-212h-134v736h134v-420h49l152 208h158l-215 -249z" />
    <glyph glyph-name="l" unicode="l" horiz-adv-x="257" 
d="M61 736h134v-736h-134v736z" />
    <glyph glyph-name="m" unicode="m" horiz-adv-x="903" 
d="M61 0v524h125v-90q50 102 167 102q121 0 155 -108q49 108 171 108q79 0 123 -50.5t44 -142.5v-343h-134v309q0 54 -21.5 85.5t-64.5 31.5q-49 0 -77 -39.5t-28 -110.5v-276h-134v309q0 54 -21.5 85.5t-64.5 31.5q-49 0 -77.5 -39.5t-28.5 -110.5v-276h-134z" />
    <glyph glyph-name="n" unicode="n" horiz-adv-x="607" 
d="M61 0v524h125v-92q52 104 183 104q90 0 135.5 -51.5t45.5 -150.5v-334h-133v293q0 66 -23.5 99.5t-76.5 33.5q-59 0 -90.5 -40.5t-31.5 -109.5v-276h-134z" />
    <glyph glyph-name="o" unicode="o" horiz-adv-x="611" 
d="M36 262q0 127 72.5 200.5t196.5 73.5t196.5 -73.5t72.5 -200.5t-72.5 -200.5t-196.5 -73.5t-196.5 73.5t-72.5 200.5zM169 262q0 -76 37 -123t99 -47q63 0 100 47t37 123t-37 123t-100 47q-62 0 -99 -47t-37 -123z" />
    <glyph glyph-name="p" unicode="p" horiz-adv-x="624" 
d="M61 -200v724h125v-96q56 108 177 108q99 0 161.5 -73.5t62.5 -200.5t-62.5 -200.5t-160.5 -73.5q-112 0 -169 95v-283h-134zM189 262q0 -76 36 -123t97 -47t97 47t36 123t-36 123t-97 47t-97 -47t-36 -123z" />
    <glyph glyph-name="q" unicode="q" horiz-adv-x="624" 
d="M36 262q0 127 63 200.5t162 73.5q56 0 103 -27.5t74 -80.5v96h124v-724h-134v283q-57 -95 -168 -95q-98 0 -161 73.5t-63 200.5zM169 262q0 -77 35.5 -123.5t97.5 -46.5q61 0 96.5 46.5t35.5 123.5t-35.5 123.5t-96.5 46.5q-62 0 -97.5 -46.5t-35.5 -123.5z" />
    <glyph glyph-name="r" unicode="r" horiz-adv-x="431" 
d="M340 535q31 0 60 -8v-117q-51 7 -79 7q-64 0 -94.5 -39t-30.5 -127v-251h-135l1 524h124v-101q46 112 154 112z" />
    <glyph glyph-name="s" unicode="s" horiz-adv-x="528" 
d="M20 159l123 4q10 -80 122 -80q105 0 105 55q0 21 -20 35t-68 28l-115 31q-130 35 -130 152q0 78 60 115t153 37q97 0 163 -40.5t75 -124.5l-122 -6q-6 37 -37 56.5t-79 19.5q-39 1 -60 -13t-21 -40q0 -40 73 -60l116 -31q143 -37 143 -152q0 -78 -65.5 -117.5
t-174.5 -39.5q-227 0 -241 171z" />
    <glyph glyph-name="t" unicode="t" horiz-adv-x="418" 
d="M384 424h-124v-249q0 -42 12.5 -57.5t50.5 -15.5q28 0 61 5v-108q-47 -7 -87 -7q-89 0 -130 37t-41 126v269h-109v98h79q20 0 28.5 8t8.5 26v88h127v-120h124v-100z" />
    <glyph glyph-name="u" unicode="u" horiz-adv-x="607" 
d="M412 524h134v-524h-125v98q-53 -110 -183 -110q-88 0 -134.5 54t-46.5 154v328h134v-288q0 -138 100 -138q59 0 90 44.5t31 115.5v266z" />
    <glyph glyph-name="v" unicode="v" horiz-adv-x="574" 
d="M417 524h142l-172 -524h-203l-170 524h144l129 -446z" />
    <glyph glyph-name="w" unicode="w" horiz-adv-x="880" 
d="M717 524h144l-145 -524h-188l-86 455l-88 -455h-192l-142 524h147l97 -424l87 424h185l83 -412z" />
    <glyph glyph-name="x" unicode="x" horiz-adv-x="588" 
d="M569 0h-159l-120 175l-118 -175h-154l196 265l-185 259h160l105 -166l107 166h153l-183 -255z" />
    <glyph glyph-name="y" unicode="y" horiz-adv-x="580" 
d="M423 524h142l-173 -566q-27 -97 -74 -133.5t-139 -36.5q-35 0 -72 4v102q44 -2 63 -2q43 0 65 16.5t36 65.5l7 26h-79l-183 524h144l146 -469z" />
    <glyph glyph-name="z" unicode="z" horiz-adv-x="514" 
d="M188 104h305v-104h-475v92l295 328h-275v104h446v-92z" />
    <glyph glyph-name="braceleft" unicode="{" horiz-adv-x="346" 
d="M237 437q0 -125 -118 -141v-4q118 -18 118 -142v-111q0 -95 81 -95h8v-92h-13q-92 0 -140.5 40t-48.5 140v104q0 112 -84 112h-9v91h9q84 0 84 113v104q0 100 48.5 139.5t140.5 39.5h13v-92h-8q-40 0 -60.5 -22t-20.5 -72v-112z" />
    <glyph glyph-name="bar" unicode="|" horiz-adv-x="254" 
d="M78 736h98v-857h-98v857z" />
    <glyph glyph-name="braceright" unicode="}" horiz-adv-x="346" 
d="M306 339h10v-91h-10q-83 0 -83 -112v-104q0 -100 -48.5 -140t-140.5 -40h-14v92h9q80 0 80 95v111q0 124 118 142v4q-118 16 -118 141v112q0 94 -80 94h-9v92h14q92 0 140.5 -39.5t48.5 -139.5v-104q0 -113 83 -113z" />
    <glyph glyph-name="asciitilde" unicode="~" horiz-adv-x="577" 
d="M429 407h79q0 -65 -27.5 -107.5t-91.5 -42.5q-41 0 -77 20.5t-64 40.5t-50 20q-24 0 -37 -18.5t-13 -47.5h-78q0 150 118 150q32 0 62 -12.5t48.5 -28t40.5 -28t41 -12.5q24 0 36.5 18t12.5 48z" />
    <glyph glyph-name="uni00A0" unicode="&#xa0;" horiz-adv-x="234" 
 />
    <glyph glyph-name="exclamdown" unicode="&#xa1;" horiz-adv-x="305" 
d="M79 524h147v-151h-147v151zM208 294l13 -470h-137l14 470h110z" />
    <glyph glyph-name="cent" unicode="&#xa2;" horiz-adv-x="569" 
d="M539 180q-12 -85 -70.5 -134.5t-146.5 -56.5v-75h-58v75q-107 10 -167.5 80.5t-60.5 192.5q0 123 61 194t167 79v75h58v-75q84 -8 141 -56t69 -129l-121 -10q-19 79 -89 95v-347q36 7 61 33t34 68zM161 262q0 -72 27 -117t76 -56v346q-48 -11 -75.5 -56t-27.5 -117z" />
    <glyph glyph-name="sterling" unicode="&#xa3;" horiz-adv-x="557" 
d="M141 110h400v-110h-526v96q95 82 95 176q0 22 -4 41h-78v73h62q-14 62 -14 105q0 102 60 155.5t166 53.5t157.5 -53t60.5 -157l-129 -9q-9 109 -89 109q-43 0 -66 -29t-23 -84q0 -38 11 -91h179v-73h-162q5 -27 5 -48q0 -90 -105 -155z" />
    <glyph glyph-name="currency" unicode="&#xa4;" horiz-adv-x="618" 
d="M586 97l-70 -70l-75 74q-55 -33 -132 -33t-132 33l-73 -73l-71 71l72 72q-35 55 -35 133t35 133l-73 74l70 70l74 -74q57 33 133 33q77 0 132 -33l73 73l71 -72l-72 -71q35 -55 35 -133q0 -76 -35 -133zM182 304q0 -61 34 -96.5t93 -35.5t93 35.5t34 96.5t-34 96.5
t-93 35.5t-93 -35.5t-34 -96.5z" />
    <glyph glyph-name="yen" unicode="&#xa5;" horiz-adv-x="652" 
d="M393 313v-5h181v-65h-181v-57h181v-66h-181v-120h-135v120h-180v66h180v57h-180v65h180v7l-246 373h154l160 -273l165 273h148z" />
    <glyph glyph-name="brokenbar" unicode="&#xa6;" horiz-adv-x="254" 
d="M78 736h98v-346h-98v346zM78 241h98v-362h-98v362z" />
    <glyph glyph-name="section" unicode="&#xa7;" horiz-adv-x="518" 
d="M398 197q82 -44 82 -135q0 -80 -58.5 -119.5t-153.5 -39.5t-156 42.5t-67 130.5l113 4q5 -44 34 -66t76 -22q37 0 63.5 16t26.5 47q0 25 -17.5 41t-64.5 30l-115 33q-63 18 -95.5 56.5t-32.5 86.5q0 82 93 123q-75 43 -75 134q0 78 56 115.5t140 37.5q86 0 147 -41.5
t70 -125.5l-114 -6q-6 41 -34.5 62.5t-68.5 21.5q-33 1 -53.5 -15.5t-20.5 -44.5q0 -47 71 -69l110 -32q135 -39 135 -145q0 -80 -91 -120zM231 249l79 -22q63 22 63 67q0 50 -90 78l-68 20q-66 -19 -66 -68q0 -53 82 -75z" />
    <glyph glyph-name="dieresis" unicode="&#xa8;" horiz-adv-x="389" 
d="M40 598v118h119v-118h-119zM229 598v118h120v-118h-120z" />
    <glyph glyph-name="copyright" unicode="&#xa9;" horiz-adv-x="806" 
d="M403 -12q-158 0 -260 99.5t-102 262.5t102 262.5t260 99.5t260 -99.5t102 -262.5t-102 -262.5t-260 -99.5zM403 53q128 0 209.5 85t81.5 212t-81.5 212t-209.5 85t-209.5 -85t-81.5 -212t81.5 -212t209.5 -85zM232 350q0 97 46.5 149.5t126.5 52.5q67 0 113 -37t53 -104
l-88 -8q-12 77 -78 77q-37 0 -60 -34.5t-23 -95.5t23.5 -95.5t63.5 -34.5q31 0 52 21t27 61l87 -6q-7 -70 -52.5 -109t-113.5 -39q-83 0 -130 53t-47 149z" />
    <glyph glyph-name="guillemotleft" unicode="&#xab;" horiz-adv-x="519" 
d="M280 464l-149 -184l149 -184h-128l-126 159v50l126 159h128zM481 464l-149 -184l149 -184h-128l-126 159v50l126 159h128z" />
    <glyph glyph-name="logicalnot" unicode="&#xac;" horiz-adv-x="516" 
d="M60 377h387v-211h-96v121h-291v90z" />
    <glyph glyph-name="registered" unicode="&#xae;" horiz-adv-x="566" 
d="M283 212q-106 0 -178 70.5t-72 179.5t72 179.5t178 70.5t178 -70.5t72 -179.5t-72 -179.5t-178 -70.5zM283 255q89 0 147 59t58 148t-58 148t-147 59t-147 -59t-58 -148t58 -148t147 -59zM208 337v258h91q32 0 53 -19.5t21 -59.5q0 -65 -49 -76l56 -103h-54l-49 101h-24
v-101h-45zM253 474h39q35 0 35 42q0 41 -34 41h-40v-83z" />
    <glyph glyph-name="macron" unicode="&#xaf;" horiz-adv-x="395" 
d="M40 611v89h315v-89h-315z" />
    <glyph glyph-name="degree" unicode="&#xb0;" horiz-adv-x="388" 
d="M194 366q-73 0 -121.5 47t-48.5 126t48.5 126t121.5 47t121.5 -47t48.5 -126t-48.5 -126t-121.5 -47zM194 447q38 0 62 26t24 66t-24 66t-62 26t-62 -26t-24 -66t24 -66t62 -26z" />
    <glyph glyph-name="plusminus" unicode="&#xb1;" horiz-adv-x="528" 
d="M310 431h153v-89h-153v-120h-92v120h-152v89h152v135h92v-135zM66 71v90h397v-90h-397z" />
    <glyph glyph-name="uni00B2" unicode="&#xb2;" horiz-adv-x="385" 
d="M159 416h203v-85h-346v77l137 116q33 28 48.5 42t30 35t14.5 40q0 22 -14 35t-38 13q-58 0 -65 -81l-101 8q6 80 51 119t115 39q66 0 111 -34t45 -99q0 -38 -21 -71t-77 -77z" />
    <glyph glyph-name="uni00B3" unicode="&#xb3;" horiz-adv-x="402" 
d="M315 576q57 -32 57 -106q0 -73 -52 -108.5t-131 -35.5q-75 0 -123 34.5t-56 102.5l101 7q10 -60 78 -60q37 0 58 15.5t21 44.5q0 28 -19.5 44t-58.5 16q-31 0 -70 -8v70l104 88h-189v84h323v-75l-124 -90q52 -5 81 -23z" />
    <glyph glyph-name="acute" unicode="&#xb4;" horiz-adv-x="293" 
d="M40 588l75 147h138l-111 -147h-102z" />
    <glyph glyph-name="paragraph" unicode="&#xb6;" horiz-adv-x="578" 
d="M46 504q0 89 56.5 142.5t150.5 53.5h69v-793h-82v401q-87 0 -140.5 54.5t-53.5 141.5zM406 700h81v-793h-81v793z" />
    <glyph glyph-name="periodcentered" unicode="&#xb7;" horiz-adv-x="272" 
d="M62 234v151h148v-151h-148z" />
    <glyph glyph-name="cedilla" unicode="&#xb8;" horiz-adv-x="303" 
d="M174 -48q35 0 62 -20t27 -61q0 -45 -32.5 -66t-78.5 -21t-75.5 20t-36.5 56l56 3q9 -30 43 -30q42 0 42 38q0 37 -39 37q-19 0 -39 -11l-45 20l46 83h51l-35 -61q32 13 54 13z" />
    <glyph glyph-name="uni00B9" unicode="&#xb9;" horiz-adv-x="306" 
d="M137 764h85v-431h-104v315l-83 -63v103z" />
    <glyph glyph-name="guillemotright" unicode="&#xbb;" horiz-adv-x="519" 
d="M166 464l126 -159v-50l-126 -159h-128l149 184l-149 184h128zM367 464l126 -159v-50l-126 -159h-128l149 184l-149 184h128z" />
    <glyph glyph-name="onequarter" unicode="&#xbc;" horiz-adv-x="766" 
d="M108 340v259l-82 -47v90l100 58h70v-360h-88zM546 700h95l-486 -700h-97zM685 147h63v-72h-63v-75h-88v75h-201v66l145 219h144v-213zM482 147h115v172z" />
    <glyph glyph-name="onehalf" unicode="&#xbd;" horiz-adv-x="776" 
d="M108 340v259l-82 -47v90l100 58h70v-360h-88zM546 700h95l-486 -700h-97zM569 71h184v-71h-304v65l123 97q29 23 43 35t26 29.5t12 33.5q0 18 -13 29.5t-36 11.5q-53 0 -60 -68l-85 6q6 67 45.5 100t99.5 33q59 0 98.5 -28.5t39.5 -83.5q0 -32 -19 -60t-67 -63z" />
    <glyph glyph-name="threequarters" unicode="&#xbe;" horiz-adv-x="863" 
d="M337 451q0 -63 -46.5 -93t-118.5 -30q-68 0 -111 29t-50 88l87 5q8 -51 74 -51q36 0 56.5 13.5t20.5 38.5q0 23 -19 37t-56 14q-23 0 -65 -7v59l102 75h-178v71h292v-64l-117 -75q57 -4 89 -27q40 -27 40 -83zM642 700h96l-487 -700h-96zM781 147h63v-72h-63v-75h-88v75
h-201v66l146 219h143v-213zM578 147h115v172z" />
    <glyph glyph-name="questiondown" unicode="&#xbf;" horiz-adv-x="530" 
d="M356 524v-151h-148v151h148zM260 -188q-99 0 -164 47.5t-65 141.5q0 58 27.5 100t87.5 85q43 30 57.5 48t14.5 47v10h128v-15q0 -55 -17.5 -86.5t-66.5 -62.5q-33 -22 -49 -35t-32.5 -37.5t-16.5 -51.5q0 -40 26.5 -60t69.5 -20q115 0 128 136l125 -9
q-9 -119 -77.5 -178.5t-175.5 -59.5z" />
    <glyph glyph-name="Agrave" unicode="&#xc0;" horiz-adv-x="699" 
d="M407 760h-104l-118 122h136zM543 0l-51 163h-289l-51 -163h-138l228 700h215l229 -700h-143zM348 624l-111 -354h221z" />
    <glyph glyph-name="Aacute" unicode="&#xc1;" horiz-adv-x="699" 
d="M515 882l-118 -122h-103l86 122h135zM543 0l-51 163h-289l-51 -163h-138l228 700h215l229 -700h-143zM348 624l-111 -354h221z" />
    <glyph glyph-name="Acircumflex" unicode="&#xc2;" horiz-adv-x="699" 
d="M350 844l-80 -82h-96l101 121h150l100 -121h-95zM543 0l-51 163h-289l-51 -163h-138l228 700h215l229 -700h-143zM348 624l-111 -354h221z" />
    <glyph glyph-name="Atilde" unicode="&#xc3;" horiz-adv-x="699" 
d="M287 805q-30 0 -30 -42h-69q0 115 90 115q39 0 79.5 -25.5t53.5 -25.5q31 0 31 42h69q0 -114 -90 -114q-39 0 -79.5 25t-54.5 25zM543 0l-51 163h-289l-51 -163h-138l228 700h215l229 -700h-143zM348 624l-111 -354h221z" />
    <glyph glyph-name="Adieresis" unicode="&#xc4;" horiz-adv-x="699" 
d="M311 871v-110h-132v110h132zM521 871v-110h-132v110h132zM543 0l-51 163h-289l-51 -163h-138l228 700h215l229 -700h-143zM348 624l-111 -354h221z" />
    <glyph glyph-name="Aring" unicode="&#xc5;" horiz-adv-x="699" 
d="M350 744q-47 0 -80 26.5t-33 76.5q0 49 33 75.5t80 26.5q46 0 79 -26.5t33 -75.5q0 -50 -33 -76.5t-79 -26.5zM350 892q-21 0 -36 -12.5t-15 -32.5q0 -21 15 -33.5t36 -12.5t35.5 12.5t14.5 33.5q0 20 -14.5 32.5t-35.5 12.5zM543 0l-51 163h-289l-51 -163h-138l228 700
h215l229 -700h-143zM348 624l-111 -354h221z" />
    <glyph glyph-name="AE" unicode="&#xc6;" horiz-adv-x="1043" 
d="M8 0l356 700h623v-110h-370v-182h290v-104h-290v-194h384v-110h-524v163h-240l-81 -163h-148zM287 270h190v320h-30z" />
    <glyph glyph-name="Ccedilla" unicode="&#xc7;" horiz-adv-x="700" 
d="M370 -12h-9l-29 -49q28 13 54 13q35 0 62 -20t27 -61q0 -45 -32.5 -66t-78.5 -21t-75.5 20t-36.5 56l57 3q7 -30 43 -30q19 0 30.5 10t11.5 28t-11 27.5t-28 9.5q-19 0 -39 -11l-45 20l41 75q-130 18 -200.5 113t-70.5 245q0 164 84.5 263t235.5 99q125 0 203 -64.5
t95 -174.5l-134 -12q-11 62 -55.5 99.5t-108.5 37.5q-89 0 -134.5 -71.5t-45.5 -176.5q0 -110 50.5 -179t138.5 -69q68 0 111 41.5t53 105.5l134 -9q-15 -118 -91.5 -185t-206.5 -67z" />
    <glyph glyph-name="Egrave" unicode="&#xc8;" horiz-adv-x="643" 
d="M382 760h-103l-118 122h135zM78 0v700h510v-110h-370v-182h290v-104h-290v-194h384v-110h-524z" />
    <glyph glyph-name="Eacute" unicode="&#xc9;" horiz-adv-x="643" 
d="M266 760l86 122h136l-118 -122h-104zM78 0v700h510v-110h-370v-182h290v-104h-290v-194h384v-110h-524z" />
    <glyph glyph-name="Ecircumflex" unicode="&#xca;" horiz-adv-x="643" 
d="M499 762h-95l-80 82l-80 -82h-95l100 121h150zM78 0v700h510v-110h-370v-182h290v-104h-290v-194h384v-110h-524z" />
    <glyph glyph-name="Edieresis" unicode="&#xcb;" horiz-adv-x="643" 
d="M153 761v110h132v-110h-132zM363 761v110h132v-110h-132zM78 0v700h510v-110h-370v-182h290v-104h-290v-194h384v-110h-524z" />
    <glyph glyph-name="Igrave" unicode="&#xcc;" horiz-adv-x="296" 
d="M200 760h-99l-109 122h135zM78 0v700h140v-700h-140z" />
    <glyph glyph-name="Iacute" unicode="&#xcd;" horiz-adv-x="296" 
d="M97 760l73 122h134l-109 -122h-98zM78 0v700h140v-700h-140z" />
    <glyph glyph-name="Icircumflex" unicode="&#xce;" horiz-adv-x="296" 
d="M324 762h-96l-80 82l-80 -82h-95l100 121h150zM78 0v700h140v-700h-140z" />
    <glyph glyph-name="Idieresis" unicode="&#xcf;" horiz-adv-x="296" 
d="M-2 761v110h118v-110h-118zM180 761v110h118v-110h-118zM78 0v700h140v-700h-140z" />
    <glyph glyph-name="Eth" unicode="&#xd0;" horiz-adv-x="738" 
d="M376 700q154 0 237.5 -93t83.5 -257t-83.5 -257t-237.5 -93h-282v301h-66v98h66v301h282zM361 115q96 0 146 62.5t50 172.5t-50 172.5t-146 62.5h-127v-186h165v-98h-165v-186h127z" />
    <glyph glyph-name="Ntilde" unicode="&#xd1;" horiz-adv-x="758" 
d="M317 805q-31 0 -31 -42h-68q0 115 89 115q40 0 80 -25.5t54 -25.5q30 0 30 42h69q0 -114 -90 -114q-39 0 -79 25t-54 25zM546 700h133v-700h-234l-233 611v-611h-134v700h235l233 -611v611z" />
    <glyph glyph-name="Ograve" unicode="&#xd2;" horiz-adv-x="748" 
d="M432 760h-103l-118 122h135zM41 350q0 167 87 264.5t246 97.5t246 -97.5t87 -264.5t-87 -264.5t-246 -97.5t-246 97.5t-87 264.5zM181 350q0 -111 51.5 -179.5t141.5 -68.5q91 0 142 68.5t51 179.5t-51 179.5t-142 68.5q-90 0 -141.5 -68.5t-51.5 -179.5z" />
    <glyph glyph-name="Oacute" unicode="&#xd3;" horiz-adv-x="748" 
d="M316 760l86 122h136l-118 -122h-104zM41 350q0 167 87 264.5t246 97.5t246 -97.5t87 -264.5t-87 -264.5t-246 -97.5t-246 97.5t-87 264.5zM181 350q0 -111 51.5 -179.5t141.5 -68.5q91 0 142 68.5t51 179.5t-51 179.5t-142 68.5q-90 0 -141.5 -68.5t-51.5 -179.5z" />
    <glyph glyph-name="Ocircumflex" unicode="&#xd4;" horiz-adv-x="748" 
d="M550 762h-96l-80 82l-80 -82h-95l100 121h150zM41 350q0 167 87 264.5t246 97.5t246 -97.5t87 -264.5t-87 -264.5t-246 -97.5t-246 97.5t-87 264.5zM181 350q0 -111 51.5 -179.5t141.5 -68.5q91 0 142 68.5t51 179.5t-51 179.5t-142 68.5q-90 0 -141.5 -68.5
t-51.5 -179.5z" />
    <glyph glyph-name="Otilde" unicode="&#xd5;" horiz-adv-x="748" 
d="M467 869h68q0 -114 -90 -114q-39 0 -79 25t-54 25q-31 0 -31 -42h-68q0 115 89 115q40 0 80 -25.5t54 -25.5q31 0 31 42zM41 350q0 167 87 264.5t246 97.5t246 -97.5t87 -264.5t-87 -264.5t-246 -97.5t-246 97.5t-87 264.5zM181 350q0 -111 51.5 -179.5t141.5 -68.5
q91 0 142 68.5t51 179.5t-51 179.5t-142 68.5q-90 0 -141.5 -68.5t-51.5 -179.5z" />
    <glyph glyph-name="Odieresis" unicode="&#xd6;" horiz-adv-x="748" 
d="M203 761v110h132v-110h-132zM413 761v110h132v-110h-132zM41 350q0 167 87 264.5t246 97.5t246 -97.5t87 -264.5t-87 -264.5t-246 -97.5t-246 97.5t-87 264.5zM181 350q0 -111 51.5 -179.5t141.5 -68.5q91 0 142 68.5t51 179.5t-51 179.5t-142 68.5q-90 0 -141.5 -68.5
t-51.5 -179.5z" />
    <glyph glyph-name="multiply" unicode="&#xd7;" horiz-adv-x="515" 
d="M457 465l-136 -135l136 -135l-64 -64l-136 135l-135 -135l-64 64l135 135l-135 135l64 64l135 -135l136 135z" />
    <glyph glyph-name="Oslash" unicode="&#xd8;" horiz-adv-x="748" 
d="M624 611q83 -95 83 -261q0 -167 -87 -264.5t-246 -97.5q-107 0 -184 46l-48 -65l-77 41l59 79q-83 97 -83 261q0 167 87 264.5t246 97.5q107 0 184 -46l48 65l77 -41zM181 350q0 -85 30 -145l270 360q-46 33 -107 33q-90 0 -141.5 -68.5t-51.5 -179.5zM374 102
q91 0 142 68.5t51 179.5q0 86 -30 146l-270 -360q45 -34 107 -34z" />
    <glyph glyph-name="Ugrave" unicode="&#xd9;" horiz-adv-x="747" 
d="M431 760h-103l-118 122h135zM78 272v428h140v-418q0 -179 155 -179q80 0 117.5 44.5t37.5 134.5v418h140v-428q0 -284 -295 -284t-295 284z" />
    <glyph glyph-name="Uacute" unicode="&#xda;" horiz-adv-x="747" 
d="M315 760l86 122h136l-118 -122h-104zM78 272v428h140v-418q0 -179 155 -179q80 0 117.5 44.5t37.5 134.5v418h140v-428q0 -284 -295 -284t-295 284z" />
    <glyph glyph-name="Ucircumflex" unicode="&#xdb;" horiz-adv-x="747" 
d="M549 762h-96l-80 82l-80 -82h-95l100 121h150zM78 272v428h140v-418q0 -179 155 -179q80 0 117.5 44.5t37.5 134.5v418h140v-428q0 -284 -295 -284t-295 284z" />
    <glyph glyph-name="Udieresis" unicode="&#xdc;" horiz-adv-x="747" 
d="M202 761v110h133v-110h-133zM412 761v110h133v-110h-133zM78 272v428h140v-418q0 -179 155 -179q80 0 117.5 44.5t37.5 134.5v418h140v-428q0 -284 -295 -284t-295 284z" />
    <glyph glyph-name="Yacute" unicode="&#xdd;" horiz-adv-x="688" 
d="M508 882l-118 -122h-104l86 122h136zM523 700h152l-261 -423v-277h-140v277l-262 423h159l173 -309z" />
    <glyph glyph-name="Thorn" unicode="&#xde;" horiz-adv-x="669" 
d="M381 588q69 0 124 -20.5t92 -71.5t37 -127q0 -58 -19.5 -100t-55 -66t-78.5 -35t-96 -11h-167v-157h-140v700h140v-112h163zM364 265q130 0 130 104t-130 104h-146v-208h146z" />
    <glyph glyph-name="germandbls" unicode="&#xdf;" horiz-adv-x="598" 
d="M360 422q205 -21 205 -208q0 -109 -63.5 -164.5t-162.5 -55.5q-27 0 -67 6v108q35 -5 48 -5q49 0 80.5 29.5t31.5 95.5q0 137 -140 137l-26 1v102h17q48 0 73.5 26.5t25.5 75.5q0 47 -24 72t-69 25q-94 0 -94 -124v-543h-134v559q0 101 60 154t168 53q95 0 161 -44.5
t66 -139.5q0 -139 -156 -160z" />
    <glyph glyph-name="agrave" unicode="&#xe0;" horiz-adv-x="586" 
d="M367 588h-103l-111 147h138zM38 143q0 145 220 166l137 14v26q0 42 -25 67t-76 25q-45 0 -73.5 -20t-31.5 -59h-122q3 91 66 132.5t161 41.5q113 0 174 -54t61 -161v-321h-125v95q-55 -107 -191 -107q-85 0 -130 43t-45 112zM171 150q0 -31 21.5 -50t63.5 -19
q62 0 100.5 39.5t38.5 97.5v23l-120 -12q-104 -10 -104 -79z" />
    <glyph glyph-name="aacute" unicode="&#xe1;" horiz-adv-x="586" 
d="M224 588l75 147h138l-111 -147h-102zM38 143q0 145 220 166l137 14v26q0 42 -25 67t-76 25q-45 0 -73.5 -20t-31.5 -59h-122q3 91 66 132.5t161 41.5q113 0 174 -54t61 -161v-321h-125v95q-55 -107 -191 -107q-85 0 -130 43t-45 112zM171 150q0 -31 21.5 -50t63.5 -19
q62 0 100.5 39.5t38.5 97.5v23l-120 -12q-104 -10 -104 -79z" />
    <glyph glyph-name="acircumflex" unicode="&#xe2;" horiz-adv-x="586" 
d="M460 588h-93l-72 100l-72 -100h-92l95 147h139zM38 143q0 145 220 166l137 14v26q0 42 -25 67t-76 25q-45 0 -73.5 -20t-31.5 -59h-122q3 91 66 132.5t161 41.5q113 0 174 -54t61 -161v-321h-125v95q-55 -107 -191 -107q-85 0 -130 43t-45 112zM171 150q0 -31 21.5 -50
t63.5 -19q62 0 100.5 39.5t38.5 97.5v23l-120 -12q-104 -10 -104 -79z" />
    <glyph glyph-name="atilde" unicode="&#xe3;" horiz-adv-x="586" 
d="M391 704h70q0 -118 -92 -118q-41 0 -82.5 26.5t-56.5 26.5q-31 0 -31 -44h-70q0 118 92 118q41 0 82.5 -26.5t56.5 -26.5q31 0 31 44zM38 143q0 145 220 166l137 14v26q0 42 -25 67t-76 25q-45 0 -73.5 -20t-31.5 -59h-122q3 91 66 132.5t161 41.5q113 0 174 -54t61 -161
v-321h-125v95q-55 -107 -191 -107q-85 0 -130 43t-45 112zM171 150q0 -31 21.5 -50t63.5 -19q62 0 100.5 39.5t38.5 97.5v23l-120 -12q-104 -10 -104 -79z" />
    <glyph glyph-name="adieresis" unicode="&#xe4;" horiz-adv-x="586" 
d="M141 598v118h119v-118h-119zM330 598v118h120v-118h-120zM38 143q0 145 220 166l137 14v26q0 42 -25 67t-76 25q-45 0 -73.5 -20t-31.5 -59h-122q3 91 66 132.5t161 41.5q113 0 174 -54t61 -161v-321h-125v95q-55 -107 -191 -107q-85 0 -130 43t-45 112zM171 150
q0 -31 21.5 -50t63.5 -19q62 0 100.5 39.5t38.5 97.5v23l-120 -12q-104 -10 -104 -79z" />
    <glyph glyph-name="aring" unicode="&#xe5;" horiz-adv-x="586" 
d="M295 791q47 0 80 -27t33 -77q0 -51 -33 -77.5t-80 -26.5t-79.5 26.5t-32.5 77.5q0 50 33 77t79 27zM295 639q21 0 35.5 13t14.5 35t-14.5 34.5t-35.5 12.5t-35.5 -12.5t-14.5 -34.5t14.5 -35t35.5 -13zM38 143q0 145 220 166l137 14v26q0 42 -25 67t-76 25
q-45 0 -73.5 -20t-31.5 -59h-122q3 91 66 132.5t161 41.5q113 0 174 -54t61 -161v-321h-125v95q-55 -107 -191 -107q-85 0 -130 43t-45 112zM171 150q0 -31 21.5 -50t63.5 -19q62 0 100.5 39.5t38.5 97.5v23l-120 -12q-104 -10 -104 -79z" />
    <glyph glyph-name="ae" unicode="&#xe6;" horiz-adv-x="943" 
d="M908 238v-15h-376q7 -70 43.5 -105t91.5 -35q74 0 106 68l129 -8q-21 -73 -82.5 -114t-152.5 -41q-168 0 -222 128q-30 -60 -89.5 -94t-137.5 -34q-89 0 -134.5 43t-45.5 112q0 77 57.5 118t162.5 47l137 9v29q0 44 -25 69.5t-76 25.5q-45 0 -73.5 -20t-31.5 -59h-122
q3 91 65.5 132.5t157.5 41.5q138 0 182 -87q62 87 191 87q245 0 245 -298zM533 308h243q-4 62 -35 97.5t-81 35.5t-84 -33.5t-43 -99.5zM395 218v18l-120 -8q-104 -6 -104 -78q0 -31 21.5 -50t63.5 -19q62 0 100.5 39.5t38.5 97.5z" />
    <glyph glyph-name="ccedilla" unicode="&#xe7;" horiz-adv-x="580" 
d="M550 189q-11 -96 -79 -148.5t-170 -52.5l-29 -49q28 13 54 13q35 0 62 -20t27 -61q0 -45 -32.5 -66t-78.5 -21t-75.5 20t-36.5 56l57 3q7 -30 43 -30q19 0 30.5 10t11.5 28t-11 27.5t-28 9.5q-19 0 -39 -11l-45 20l40 74q-101 14 -158 83.5t-57 187.5q0 131 70 202.5
t191 71.5q100 0 167.5 -51t78.5 -143l-128 -11q-10 49 -41.5 75t-76.5 26q-59 0 -93.5 -45t-34.5 -125t35 -125t96 -45q49 0 80 27.5t41 77.5z" />
    <glyph glyph-name="egrave" unicode="&#xe8;" horiz-adv-x="597" 
d="M367 588h-102l-111 147h138zM36 262q0 136 73.5 205t196.5 69q256 0 256 -298v-15h-391q7 -70 44.5 -105t97.5 -35q82 0 114 68l128 -8q-20 -74 -83 -114.5t-159 -40.5q-128 0 -202.5 68.5t-74.5 205.5zM171 308h259q-4 63 -36.5 98t-87.5 35t-90.5 -33.5t-44.5 -99.5z
" />
    <glyph glyph-name="eacute" unicode="&#xe9;" horiz-adv-x="597" 
d="M225 588l75 147h138l-111 -147h-102zM36 262q0 136 73.5 205t196.5 69q256 0 256 -298v-15h-391q7 -70 44.5 -105t97.5 -35q82 0 114 68l128 -8q-20 -74 -83 -114.5t-159 -40.5q-128 0 -202.5 68.5t-74.5 205.5zM171 308h259q-4 63 -36.5 98t-87.5 35t-90.5 -33.5
t-44.5 -99.5z" />
    <glyph glyph-name="ecircumflex" unicode="&#xea;" horiz-adv-x="597" 
d="M460 588h-92l-72 100l-72 -100h-93l96 147h138zM36 262q0 136 73.5 205t196.5 69q256 0 256 -298v-15h-391q7 -70 44.5 -105t97.5 -35q82 0 114 68l128 -8q-20 -74 -83 -114.5t-159 -40.5q-128 0 -202.5 68.5t-74.5 205.5zM171 308h259q-4 63 -36.5 98t-87.5 35
t-90.5 -33.5t-44.5 -99.5z" />
    <glyph glyph-name="edieresis" unicode="&#xeb;" horiz-adv-x="597" 
d="M142 598v118h119v-118h-119zM331 598v118h119v-118h-119zM36 262q0 136 73.5 205t196.5 69q256 0 256 -298v-15h-391q7 -70 44.5 -105t97.5 -35q82 0 114 68l128 -8q-20 -74 -83 -114.5t-159 -40.5q-128 0 -202.5 68.5t-74.5 205.5zM171 308h259q-4 63 -36.5 98t-87.5 35
t-90.5 -33.5t-44.5 -99.5z" />
    <glyph glyph-name="igrave" unicode="&#xec;" horiz-adv-x="257" 
d="M184 588h-101l-95 147h138zM62 0v524h134v-524h-134z" />
    <glyph glyph-name="iacute" unicode="&#xed;" horiz-adv-x="259" 
d="M73 588l58 147h138l-95 -147h-101zM61 0v524h134v-524h-134z" />
    <glyph glyph-name="icircumflex" unicode="&#xee;" horiz-adv-x="261" 
d="M295 588h-93l-72 100l-72 -100h-92l95 147h139zM63 0v524h134v-524h-134z" />
    <glyph glyph-name="idieresis" unicode="&#xef;" horiz-adv-x="257" 
d="M-11 598v118h111v-118h-111zM157 598v118h112v-118h-112zM62 0v524h134v-524h-134z" />
    <glyph glyph-name="eth" unicode="&#xf0;" horiz-adv-x="617" 
d="M408 662q166 -115 166 -351q0 -164 -74 -243.5t-197 -79.5q-121 0 -194 70t-73 189q0 117 69 187.5t174 70.5q140 0 193 -124q-33 153 -172 218l-119 -68l-27 45l83 48q-55 19 -127 31l23 107q132 -24 223 -69l95 55l27 -46zM305 92q64 0 100.5 42t36.5 113
q0 70 -36.5 112t-100.5 42q-63 0 -99.5 -42t-36.5 -112t36.5 -112.5t99.5 -42.5z" />
    <glyph glyph-name="ntilde" unicode="&#xf1;" horiz-adv-x="607" 
d="M399 704h70q0 -118 -92 -118q-41 0 -82.5 26.5t-56.5 26.5q-32 0 -32 -44h-70q0 118 93 118q41 0 82.5 -26.5t55.5 -26.5q32 0 32 44zM61 0v524h125v-92q52 104 183 104q90 0 135.5 -51.5t45.5 -150.5v-334h-133v293q0 66 -23.5 99.5t-76.5 33.5q-59 0 -90.5 -40.5
t-31.5 -109.5v-276h-134z" />
    <glyph glyph-name="ograve" unicode="&#xf2;" horiz-adv-x="611" 
d="M377 588h-103l-111 147h138zM36 262q0 127 72.5 200.5t196.5 73.5t196.5 -73.5t72.5 -200.5t-72.5 -200.5t-196.5 -73.5t-196.5 73.5t-72.5 200.5zM169 262q0 -76 37 -123t99 -47q63 0 100 47t37 123t-37 123t-100 47q-62 0 -99 -47t-37 -123z" />
    <glyph glyph-name="oacute" unicode="&#xf3;" horiz-adv-x="611" 
d="M234 588l75 147h138l-111 -147h-102zM36 262q0 127 72.5 200.5t196.5 73.5t196.5 -73.5t72.5 -200.5t-72.5 -200.5t-196.5 -73.5t-196.5 73.5t-72.5 200.5zM169 262q0 -76 37 -123t99 -47q63 0 100 47t37 123t-37 123t-100 47q-62 0 -99 -47t-37 -123z" />
    <glyph glyph-name="ocircumflex" unicode="&#xf4;" horiz-adv-x="611" 
d="M470 588h-93l-72 100l-72 -100h-92l95 147h139zM36 262q0 127 72.5 200.5t196.5 73.5t196.5 -73.5t72.5 -200.5t-72.5 -200.5t-196.5 -73.5t-196.5 73.5t-72.5 200.5zM169 262q0 -76 37 -123t99 -47q63 0 100 47t37 123t-37 123t-100 47q-62 0 -99 -47t-37 -123z" />
    <glyph glyph-name="otilde" unicode="&#xf5;" horiz-adv-x="611" 
d="M401 704h70q0 -118 -92 -118q-41 0 -82.5 26.5t-56.5 26.5q-31 0 -31 -44h-70q0 118 92 118q41 0 82.5 -26.5t56.5 -26.5q31 0 31 44zM36 262q0 127 72.5 200.5t196.5 73.5t196.5 -73.5t72.5 -200.5t-72.5 -200.5t-196.5 -73.5t-196.5 73.5t-72.5 200.5zM169 262
q0 -76 37 -123t99 -47q63 0 100 47t37 123t-37 123t-100 47q-62 0 -99 -47t-37 -123z" />
    <glyph glyph-name="odieresis" unicode="&#xf6;" horiz-adv-x="611" 
d="M151 598v118h119v-118h-119zM340 598v118h120v-118h-120zM36 262q0 127 72.5 200.5t196.5 73.5t196.5 -73.5t72.5 -200.5t-72.5 -200.5t-196.5 -73.5t-196.5 73.5t-72.5 200.5zM169 262q0 -76 37 -123t99 -47q63 0 100 47t37 123t-37 123t-100 47q-62 0 -99 -47t-37 -123
z" />
    <glyph glyph-name="divide" unicode="&#xf7;" horiz-adv-x="504" 
d="M252 436q-25 0 -42.5 18t-17.5 43t17.5 42.5t42.5 17.5t43 -17.5t18 -42.5t-18 -43t-43 -18zM54 377h397v-95h-397v95zM252 103q-25 0 -42.5 17.5t-17.5 42.5t17.5 42.5t42.5 17.5t43 -17.5t18 -42.5t-18 -42.5t-43 -17.5z" />
    <glyph glyph-name="oslash" unicode="&#xf8;" horiz-adv-x="611" 
d="M501 463q73 -73 73 -201q0 -127 -72.5 -200.5t-196.5 -73.5q-78 0 -138 31l-42 -56l-62 36l46 62q-73 76 -73 201q0 127 72.5 200.5t196.5 73.5q79 0 139 -31l41 55l62 -35zM169 262q0 -55 20 -95l185 246q-30 19 -69 19q-62 0 -99 -47t-37 -123zM305 92q63 0 100 47
t37 123q0 54 -20 96l-186 -246q31 -20 69 -20z" />
    <glyph glyph-name="ugrave" unicode="&#xf9;" horiz-adv-x="607" 
d="M376 588h-102l-111 147h138zM412 524h134v-524h-125v98q-53 -110 -183 -110q-88 0 -134.5 54t-46.5 154v328h134v-288q0 -138 100 -138q59 0 90 44.5t31 115.5v266z" />
    <glyph glyph-name="uacute" unicode="&#xfa;" horiz-adv-x="607" 
d="M234 588l75 147h138l-111 -147h-102zM412 524h134v-524h-125v98q-53 -110 -183 -110q-88 0 -134.5 54t-46.5 154v328h134v-288q0 -138 100 -138q59 0 90 44.5t31 115.5v266z" />
    <glyph glyph-name="ucircumflex" unicode="&#xfb;" horiz-adv-x="607" 
d="M469 588h-92l-72 100l-72 -100h-93l96 147h138zM412 524h134v-524h-125v98q-53 -110 -183 -110q-88 0 -134.5 54t-46.5 154v328h134v-288q0 -138 100 -138q59 0 90 44.5t31 115.5v266z" />
    <glyph glyph-name="udieresis" unicode="&#xfc;" horiz-adv-x="607" 
d="M151 598v118h119v-118h-119zM340 598v118h119v-118h-119zM412 524h134v-524h-125v98q-53 -110 -183 -110q-88 0 -134.5 54t-46.5 154v328h134v-288q0 -138 100 -138q59 0 90 44.5t31 115.5v266z" />
    <glyph glyph-name="yacute" unicode="&#xfd;" horiz-adv-x="580" 
d="M432 735l-111 -147h-103l76 147h138zM423 524h142l-173 -566q-27 -97 -74 -133.5t-139 -36.5q-35 0 -72 4v102q44 -2 63 -2q43 0 65 16.5t36 65.5l7 26h-79l-183 524h144l146 -469z" />
    <glyph glyph-name="thorn" unicode="&#xfe;" horiz-adv-x="624" 
d="M61 -200v936h134v-293q57 93 168 93q99 0 161.5 -73.5t62.5 -200.5t-62.5 -200.5t-160.5 -73.5q-113 0 -169 95v-283h-134zM189 262q0 -76 36 -123t97 -47t97 47t36 123t-36 123t-97 47t-97 -47t-36 -123z" />
    <glyph glyph-name="ydieresis" unicode="&#xff;" horiz-adv-x="580" 
d="M255 716v-118h-119v118h119zM444 716v-118h-119v118h119zM423 524h142l-173 -566q-27 -97 -74 -133.5t-139 -36.5q-35 0 -72 4v102q44 -2 63 -2q43 0 65 16.5t36 65.5l7 26h-79l-183 524h144l146 -469z" />
    <glyph glyph-name="Amacron" unicode="&#x100;" horiz-adv-x="699" 
d="M517 855v-92h-334v92h334zM543 0l-51 163h-289l-51 -163h-138l228 700h215l229 -700h-143zM348 624l-111 -354h221z" />
    <glyph glyph-name="amacron" unicode="&#x101;" horiz-adv-x="586" 
d="M138 611v89h314v-89h-314zM38 143q0 145 220 166l137 14v26q0 42 -25 67t-76 25q-45 0 -73.5 -20t-31.5 -59h-122q3 91 66 132.5t161 41.5q113 0 174 -54t61 -161v-321h-125v95q-55 -107 -191 -107q-85 0 -130 43t-45 112zM171 150q0 -31 21.5 -50t63.5 -19
q62 0 100.5 39.5t38.5 97.5v23l-120 -12q-104 -10 -104 -79z" />
    <glyph glyph-name="Abreve" unicode="&#x102;" horiz-adv-x="699" 
d="M350 756q-80 0 -121 38.5t-43 103.5h80q2 -26 22 -44.5t62 -18.5q76 0 84 63h80q-2 -65 -43 -103.5t-121 -38.5zM543 0l-51 163h-289l-51 -163h-138l228 700h215l229 -700h-143zM348 624l-111 -354h221z" />
    <glyph glyph-name="abreve" unicode="&#x103;" horiz-adv-x="586" 
d="M379 737h76q-2 -69 -42 -110t-118 -41t-117.5 41t-41.5 110h75q6 -72 84 -72t84 72zM38 143q0 145 220 166l137 14v26q0 42 -25 67t-76 25q-45 0 -73.5 -20t-31.5 -59h-122q3 91 66 132.5t161 41.5q113 0 174 -54t61 -161v-321h-125v95q-55 -107 -191 -107q-85 0 -130 43
t-45 112zM171 150q0 -31 21.5 -50t63.5 -19q62 0 100.5 39.5t38.5 97.5v23l-120 -12q-104 -10 -104 -79z" />
    <glyph glyph-name="Aogonek" unicode="&#x104;" horiz-adv-x="699" 
d="M651 -103l49 -14q-10 -40 -39.5 -63.5t-73.5 -23.5q-42 0 -68.5 21.5t-26.5 59.5q0 44 33 72t87 51h-69l-51 163h-289l-51 -163h-138l228 700h215l229 -700q-33 -20 -53.5 -35t-38.5 -37.5t-18 -44.5q0 -33 31 -33q32 0 44 47zM348 624l-111 -354h221z" />
    <glyph glyph-name="aogonek" unicode="&#x105;" horiz-adv-x="586" 
d="M494 -103l49 -14q-10 -40 -39.5 -63.5t-73.5 -23.5q-42 0 -68.5 21.5t-26.5 59.5q0 44 33 72t87 51h-51v95q-55 -107 -191 -107q-85 0 -130 43t-45 112q0 145 220 166l137 14v26q0 42 -25 67t-76 25q-45 0 -73.5 -20t-31.5 -59h-122q3 91 66 132.5t161 41.5
q113 0 174 -54t61 -161v-321q-33 -20 -53.5 -35t-38.5 -37.5t-18 -44.5q0 -33 31 -33q32 0 44 47zM395 218v23l-120 -12q-104 -10 -104 -79q0 -31 21.5 -50t63.5 -19q62 0 100.5 39.5t38.5 97.5z" />
    <glyph glyph-name="Cacute" unicode="&#x106;" horiz-adv-x="700" 
d="M293 760l86 122h136l-119 -122h-103zM41 350q0 164 84.5 263t235.5 99q125 0 203 -64.5t95 -174.5l-134 -12q-11 62 -55.5 99.5t-108.5 37.5q-89 0 -134.5 -71.5t-45.5 -176.5q0 -110 50.5 -179t138.5 -69q68 0 111 41.5t53 105.5l134 -9q-15 -118 -91.5 -185t-206.5 -67
q-156 0 -242.5 98t-86.5 264z" />
    <glyph glyph-name="cacute" unicode="&#x107;" horiz-adv-x="580" 
d="M220 588l75 147h138l-111 -147h-102zM36 262q0 131 70 202.5t191 71.5q100 0 167.5 -51t78.5 -143l-128 -11q-10 49 -41.5 75t-76.5 26q-59 0 -93.5 -45t-34.5 -125t35 -125t96 -45q49 0 80 27.5t41 77.5l129 -8q-11 -96 -79 -148.5t-171 -52.5q-123 0 -193.5 71
t-70.5 203z" />
    <glyph glyph-name="Cdotaccent" unicode="&#x10a;" horiz-adv-x="700" 
d="M276 759v113h150v-113h-150zM41 350q0 164 84.5 263t235.5 99q125 0 203 -64.5t95 -174.5l-134 -12q-11 62 -55.5 99.5t-108.5 37.5q-89 0 -134.5 -71.5t-45.5 -176.5q0 -110 50.5 -179t138.5 -69q68 0 111 41.5t53 105.5l134 -9q-15 -118 -91.5 -185t-206.5 -67
q-156 0 -242.5 98t-86.5 264z" />
    <glyph glyph-name="cdotaccent" unicode="&#x10b;" horiz-adv-x="580" 
d="M220 598v129h142v-129h-142zM36 262q0 131 70 202.5t191 71.5q100 0 167.5 -51t78.5 -143l-128 -11q-10 49 -41.5 75t-76.5 26q-59 0 -93.5 -45t-34.5 -125t35 -125t96 -45q49 0 80 27.5t41 77.5l129 -8q-11 -96 -79 -148.5t-171 -52.5q-123 0 -193.5 71t-70.5 203z" />
    <glyph glyph-name="Ccaron" unicode="&#x10c;" horiz-adv-x="700" 
d="M431 880h95l-100 -121h-150l-100 121h95l80 -81zM41 350q0 164 84.5 263t235.5 99q125 0 203 -64.5t95 -174.5l-134 -12q-11 62 -55.5 99.5t-108.5 37.5q-89 0 -134.5 -71.5t-45.5 -176.5q0 -110 50.5 -179t138.5 -69q68 0 111 41.5t53 105.5l134 -9q-15 -118 -91.5 -185
t-206.5 -67q-156 0 -242.5 98t-86.5 264z" />
    <glyph glyph-name="ccaron" unicode="&#x10d;" horiz-adv-x="580" 
d="M363 732h92l-95 -147h-138l-96 147h93l72 -100zM36 262q0 131 70 202.5t191 71.5q100 0 167.5 -51t78.5 -143l-128 -11q-10 49 -41.5 75t-76.5 26q-59 0 -93.5 -45t-34.5 -125t35 -125t96 -45q49 0 80 27.5t41 77.5l129 -8q-11 -96 -79 -148.5t-171 -52.5
q-123 0 -193.5 71t-70.5 203z" />
    <glyph glyph-name="Dcaron" unicode="&#x10e;" horiz-adv-x="722" 
d="M441 880h96l-101 -121h-149l-101 121h95l80 -81zM78 0v700h283q153 0 236.5 -93t83.5 -257t-83.5 -257t-236.5 -93h-283zM218 115h128q95 0 145 62.5t50 172.5t-50 172.5t-145 62.5h-128v-470z" />
    <glyph glyph-name="dcaron" unicode="&#x10f;" horiz-adv-x="655" 
d="M36 262q0 127 63 200.5t162 73.5q111 0 167 -93v293h134v-736h-124v99q-28 -54 -74.5 -82.5t-103.5 -28.5q-98 0 -161 73.5t-63 200.5zM621 565v171h95v-67l-49 -104h-46zM169 262q0 -77 35.5 -123.5t97.5 -46.5q61 0 96.5 46.5t35.5 123.5t-35.5 123.5t-96.5 46.5
q-62 0 -97.5 -46.5t-35.5 -123.5z" />
    <glyph glyph-name="Dcroat" unicode="&#x110;" horiz-adv-x="738" 
d="M376 700q154 0 237.5 -93t83.5 -257t-83.5 -257t-237.5 -93h-282v301h-66v98h66v301h282zM361 115q96 0 146 62.5t50 172.5t-50 172.5t-146 62.5h-127v-186h165v-98h-165v-186h127z" />
    <glyph glyph-name="dcroat" unicode="&#x111;" horiz-adv-x="624" 
d="M620 655v-62h-58v-593h-124v99q-28 -54 -74.5 -82.5t-103.5 -28.5q-98 0 -161 73.5t-63 200.5t63 200.5t162 73.5q111 0 167 -93v150h-178v62h178v81h134v-81h58zM302 92q61 0 96.5 46.5t35.5 123.5t-35.5 123.5t-96.5 46.5q-62 0 -97.5 -46.5t-35.5 -123.5t35.5 -123.5
t97.5 -46.5z" />
    <glyph glyph-name="Emacron" unicode="&#x112;" horiz-adv-x="643" 
d="M157 763v92h334v-92h-334zM78 0v700h510v-110h-370v-182h290v-104h-290v-194h384v-110h-524z" />
    <glyph glyph-name="emacron" unicode="&#x113;" horiz-adv-x="597" 
d="M138 611v89h315v-89h-315zM36 262q0 136 73.5 205t196.5 69q256 0 256 -298v-15h-391q7 -70 44.5 -105t97.5 -35q82 0 114 68l128 -8q-20 -74 -83 -114.5t-159 -40.5q-128 0 -202.5 68.5t-74.5 205.5zM171 308h259q-4 63 -36.5 98t-87.5 35t-90.5 -33.5t-44.5 -99.5z" />
    <glyph glyph-name="Edotaccent" unicode="&#x116;" horiz-adv-x="643" 
d="M249 759v113h150v-113h-150zM78 0v700h510v-110h-370v-182h290v-104h-290v-194h384v-110h-524z" />
    <glyph glyph-name="edotaccent" unicode="&#x117;" horiz-adv-x="597" 
d="M225 598v129h142v-129h-142zM36 262q0 136 73.5 205t196.5 69q256 0 256 -298v-15h-391q7 -70 44.5 -105t97.5 -35q82 0 114 68l128 -8q-20 -74 -83 -114.5t-159 -40.5q-128 0 -202.5 68.5t-74.5 205.5zM171 308h259q-4 63 -36.5 98t-87.5 35t-90.5 -33.5t-44.5 -99.5z
" />
    <glyph glyph-name="Eogonek" unicode="&#x118;" horiz-adv-x="643" 
d="M586 0q-51 -31 -80 -58.5t-29 -58.5q0 -33 30 -33q33 0 45 47l49 -14q-10 -40 -39.5 -63.5t-73.5 -23.5q-42 0 -68.5 21.5t-26.5 59.5q0 44 33 72t87 51h-435v700h510v-110h-370v-182h290v-104h-290v-194h384v-110h-16z" />
    <glyph glyph-name="eogonek" unicode="&#x119;" horiz-adv-x="597" 
d="M562 238v-15h-391q7 -70 44.5 -105t97.5 -35q82 0 114 68l128 -8q-21 -75 -84 -115q-93 -61 -121 -88.5t-28 -56.5q0 -33 31 -33q32 0 44 47l49 -14q-10 -40 -39.5 -63.5t-73.5 -23.5q-42 0 -68.5 21.5t-26.5 59.5q0 66 94 111h-19q-128 0 -202.5 68.5t-74.5 205.5
q0 136 73.5 205t196.5 69q256 0 256 -298zM171 308h259q-4 63 -36.5 98t-87.5 35t-90.5 -33.5t-44.5 -99.5z" />
    <glyph glyph-name="Ecaron" unicode="&#x11a;" horiz-adv-x="643" 
d="M404 880h95l-100 -121h-150l-100 121h95l80 -81zM78 0v700h510v-110h-370v-182h290v-104h-290v-194h384v-110h-524z" />
    <glyph glyph-name="ecaron" unicode="&#x11b;" horiz-adv-x="597" 
d="M368 732h92l-95 -147h-138l-96 147h93l72 -100zM36 262q0 136 73.5 205t196.5 69q256 0 256 -298v-15h-391q7 -70 44.5 -105t97.5 -35q82 0 114 68l128 -8q-20 -74 -83 -114.5t-159 -40.5q-128 0 -202.5 68.5t-74.5 205.5zM171 308h259q-4 63 -36.5 98t-87.5 35
t-90.5 -33.5t-44.5 -99.5z" />
    <glyph glyph-name="Gbreve" unicode="&#x11e;" horiz-adv-x="717" 
d="M442 898h80q-2 -65 -43 -103.5t-121 -38.5t-121 38.5t-43 103.5h80q2 -26 22 -44.5t62 -18.5q76 0 84 63zM41 350q0 164 84.5 263t235.5 99q120 0 197 -60.5t97 -164.5l-133 -11q-14 56 -57.5 89t-103.5 33q-89 0 -134.5 -71.5t-45.5 -176.5q0 -112 54.5 -180t155.5 -68
q76 0 152 32v142h-177v94h304v-314q-141 -68 -282 -68q-167 0 -257 98t-90 264z" />
    <glyph glyph-name="gbreve" unicode="&#x11f;" horiz-adv-x="620" 
d="M394 737h76q-2 -69 -42 -110t-118 -41t-118 41t-42 110h76q6 -72 84 -72q76 0 84 72zM36 273q0 119 64 191t163 72q116 0 171 -97v85h124v-463q0 -144 -62 -208.5t-191 -64.5q-107 0 -169.5 45t-65.5 135h123q3 -37 31.5 -58t80.5 -21q63 0 91 34t28 104v67
q-55 -84 -161 -84q-99 0 -163 72t-64 191zM169 270q0 -73 36.5 -116t96.5 -43t96 43t36 116t-36.5 117.5t-95.5 44.5t-96 -44.5t-37 -117.5z" />
    <glyph glyph-name="Gdotaccent" unicode="&#x120;" horiz-adv-x="717" 
d="M283 759v113h149v-113h-149zM41 350q0 164 84.5 263t235.5 99q120 0 197 -60.5t97 -164.5l-133 -11q-14 56 -57.5 89t-103.5 33q-89 0 -134.5 -71.5t-45.5 -176.5q0 -112 54.5 -180t155.5 -68q76 0 152 32v142h-177v94h304v-314q-141 -68 -282 -68q-167 0 -257 98
t-90 264z" />
    <glyph glyph-name="gdotaccent" unicode="&#x121;" horiz-adv-x="620" 
d="M239 598v129h142v-129h-142zM36 273q0 119 64 191t163 72q116 0 171 -97v85h124v-463q0 -144 -62 -208.5t-191 -64.5q-107 0 -169.5 45t-65.5 135h123q3 -37 31.5 -58t80.5 -21q63 0 91 34t28 104v67q-55 -84 -161 -84q-99 0 -163 72t-64 191zM169 270q0 -73 36.5 -116
t96.5 -43t96 43t36 116t-36.5 117.5t-95.5 44.5t-96 -44.5t-37 -117.5z" />
    <glyph glyph-name="Gcommaaccent" unicode="&#x122;" horiz-adv-x="717" 
d="M41 350q0 164 84.5 263t235.5 99q120 0 197 -60.5t97 -164.5l-133 -11q-14 56 -57.5 89t-103.5 33q-89 0 -134.5 -71.5t-45.5 -176.5q0 -112 54.5 -180t155.5 -68q76 0 152 32v142h-177v94h304v-314q-141 -68 -282 -68q-167 0 -257 98t-90 264zM309 -230v180h117v-75
l-63 -105h-54z" />
    <glyph glyph-name="gcommaaccent" unicode="&#x123;" horiz-adv-x="620" 
d="M368 783v-180h-117v74l63 106h54zM36 273q0 119 64 191t163 72q116 0 171 -97v85h124v-463q0 -144 -62 -208.5t-191 -64.5q-107 0 -169.5 45t-65.5 135h123q3 -37 31.5 -58t80.5 -21q63 0 91 34t28 104v67q-55 -84 -161 -84q-99 0 -163 72t-64 191zM169 270
q0 -73 36.5 -116t96.5 -43t96 43t36 116t-36.5 117.5t-95.5 44.5t-96 -44.5t-37 -117.5z" />
    <glyph glyph-name="Hbar" unicode="&#x126;" horiz-adv-x="743" 
d="M730 600v-80h-66v-520h-140v299h-306v-299h-140v520h-65v80h65v100h140v-100h306v100h140v-100h66zM524 413v107h-306v-107h306z" />
    <glyph glyph-name="hbar" unicode="&#x127;" horiz-adv-x="608" 
d="M370 536q90 0 135.5 -51.5t45.5 -150.5v-334h-134v293q0 66 -23 99.5t-76 33.5q-59 0 -90.5 -40.5t-31.5 -109.5v-276h-134v593h-59v62h59v81h134v-81h178v-62h-178v-145q54 88 174 88z" />
    <glyph glyph-name="Imacron" unicode="&#x12a;" horiz-adv-x="296" 
d="M-19 763v92h334v-92h-334zM78 0v700h140v-700h-140z" />
    <glyph glyph-name="imacron" unicode="&#x12b;" horiz-adv-x="257" 
d="M-9 611v89h274v-89h-274zM61 0v524h134v-524h-134z" />
    <glyph glyph-name="Iogonek" unicode="&#x12e;" horiz-adv-x="296" 
d="M188 -103l49 -14q-10 -40 -39.5 -63.5t-73.5 -23.5q-42 0 -68 21.5t-26 60.5q0 74 115 122h-67v700h140v-700q-105 -64 -105 -116q0 -34 31 -34q34 0 44 47z" />
    <glyph glyph-name="iogonek" unicode="&#x12f;" horiz-adv-x="259" 
d="M199 727v-129h-141v129h141zM165 -103l49 -14q-10 -40 -39 -63.5t-73 -23.5q-42 0 -68.5 21.5t-26.5 60.5q0 74 115 122h-61v524h134v-524q-105 -64 -105 -116q0 -34 31 -34q34 0 44 47z" />
    <glyph glyph-name="Idotaccent" unicode="&#x130;" horiz-adv-x="296" 
d="M73 759v113h150v-113h-150zM78 0v700h140v-700h-140z" />
    <glyph glyph-name="dotlessi" unicode="&#x131;" horiz-adv-x="261" 
d="M63 0v524h134v-524h-134z" />
    <glyph glyph-name="Kcommaaccent" unicode="&#x136;" horiz-adv-x="697" 
d="M399 361l282 -361h-167l-223 299h-73v-299h-140v700h140v-294h70l208 294h163zM289 -230v180h117v-75l-63 -105h-54z" />
    <glyph glyph-name="kcommaaccent" unicode="&#x137;" horiz-adv-x="577" 
d="M339 275l230 -275h-165l-161 212h-48v-212h-134v736h134v-420h49l152 208h158zM231 -230v180h118v-75l-63 -105h-55z" />
    <glyph glyph-name="Lacute" unicode="&#x139;" horiz-adv-x="582" 
d="M93 760l85 122h136l-118 -122h-103zM78 0v700h140v-585h333v-115h-473z" />
    <glyph glyph-name="lacute" unicode="&#x13a;" horiz-adv-x="257" 
d="M71 796l85 122h136l-118 -122h-103zM61 736h134v-736h-134v736z" />
    <glyph glyph-name="Lcommaaccent" unicode="&#x13b;" horiz-adv-x="582" 
d="M78 0v700h140v-585h333v-115h-473zM234 -230v180h117v-75l-63 -105h-54z" />
    <glyph glyph-name="lcommaaccent" unicode="&#x13c;" horiz-adv-x="257" 
d="M61 736h134v-736h-134v736zM70 -230v180h117v-75l-63 -105h-54z" />
    <glyph glyph-name="Lcaron" unicode="&#x13d;" horiz-adv-x="582" 
d="M78 0v700h140v-585h333v-115h-473zM299 529v171h96v-67l-49 -104h-47z" />
    <glyph glyph-name="lcaron" unicode="&#x13e;" horiz-adv-x="288" 
d="M61 736h134v-736h-134v736zM254 565v171h95v-67l-48 -104h-47z" />
    <glyph glyph-name="Ldot" unicode="&#x13f;" horiz-adv-x="582" 
d="M78 0v700h140v-585h333v-115h-473zM307 293v151h148v-151h-148z" />
    <glyph glyph-name="ldot" unicode="&#x140;" horiz-adv-x="410" 
d="M61 736h134v-736h-134v736zM252 234v151h148v-151h-148z" />
    <glyph glyph-name="Lslash" unicode="&#x141;" horiz-adv-x="614" 
d="M250 115h333v-115h-473v264l-82 -34v89l82 35v346h140v-289l199 83v-90l-199 -82v-207z" />
    <glyph glyph-name="lslash" unicode="&#x142;" horiz-adv-x="295" 
d="M268 524v-92l-53 -49v-383h-134v261l-54 -49v92l54 49v383h134v-261z" />
    <glyph glyph-name="Nacute" unicode="&#x143;" horiz-adv-x="758" 
d="M543 882l-118 -122h-104l86 122h136zM546 700h133v-700h-234l-233 611v-611h-134v700h235l233 -611v611z" />
    <glyph glyph-name="nacute" unicode="&#x144;" horiz-adv-x="607" 
d="M232 588l75 147h138l-111 -147h-102zM61 0v524h125v-92q52 104 183 104q90 0 135.5 -51.5t45.5 -150.5v-334h-133v293q0 66 -23.5 99.5t-76.5 33.5q-59 0 -90.5 -40.5t-31.5 -109.5v-276h-134z" />
    <glyph glyph-name="Ncommaaccent" unicode="&#x145;" horiz-adv-x="758" 
d="M546 700h133v-700h-234l-233 611v-611h-134v700h235l233 -611v611zM321 -230v180h117v-75l-63 -105h-54z" />
    <glyph glyph-name="ncommaaccent" unicode="&#x146;" horiz-adv-x="607" 
d="M61 0v524h125v-92q52 104 183 104q90 0 135.5 -51.5t45.5 -150.5v-334h-133v293q0 66 -23.5 99.5t-76.5 33.5q-59 0 -90.5 -40.5t-31.5 -109.5v-276h-134zM244 -230v180h118v-75l-63 -105h-55z" />
    <glyph glyph-name="Ncaron" unicode="&#x147;" horiz-adv-x="758" 
d="M454 759h-150l-100 121h95l80 -81l80 81h95zM546 700h133v-700h-234l-233 611v-611h-134v700h235l233 -611v611z" />
    <glyph glyph-name="ncaron" unicode="&#x148;" horiz-adv-x="607" 
d="M375 732h92l-95 -147h-138l-96 147h93l72 -100zM61 0v524h125v-92q52 104 183 104q90 0 135.5 -51.5t45.5 -150.5v-334h-133v293q0 66 -23.5 99.5t-76.5 33.5q-59 0 -90.5 -40.5t-31.5 -109.5v-276h-134z" />
    <glyph glyph-name="Eng" unicode="&#x14a;" horiz-adv-x="758" 
d="M546 700h133v-729q0 -187 -205 -187q-36 0 -83 5v110q28 -5 57 -5q98 0 98 91v15h-101l-233 611v-611h-134v700h235l233 -611v611z" />
    <glyph glyph-name="eng" unicode="&#x14b;" horiz-adv-x="607" 
d="M61 0v524h125v-92q52 104 183 104q90 0 135.5 -51.5t45.5 -150.5v-392q0 -84 -33.5 -119t-116.5 -35q-25 0 -83 4v108q17 -2 40 -2q34 0 47 15.5t13 61.5v318q0 66 -23.5 99.5t-76.5 33.5q-59 0 -90.5 -40.5t-31.5 -109.5v-276h-134z" />
    <glyph glyph-name="Omacron" unicode="&#x14c;" horiz-adv-x="748" 
d="M207 763v92h334v-92h-334zM41 350q0 167 87 264.5t246 97.5t246 -97.5t87 -264.5t-87 -264.5t-246 -97.5t-246 97.5t-87 264.5zM181 350q0 -111 51.5 -179.5t141.5 -68.5q91 0 142 68.5t51 179.5t-51 179.5t-142 68.5q-90 0 -141.5 -68.5t-51.5 -179.5z" />
    <glyph glyph-name="omacron" unicode="&#x14d;" horiz-adv-x="611" 
d="M148 611v89h314v-89h-314zM36 262q0 127 72.5 200.5t196.5 73.5t196.5 -73.5t72.5 -200.5t-72.5 -200.5t-196.5 -73.5t-196.5 73.5t-72.5 200.5zM169 262q0 -76 37 -123t99 -47q63 0 100 47t37 123t-37 123t-100 47q-62 0 -99 -47t-37 -123z" />
    <glyph glyph-name="Ohungarumlaut" unicode="&#x150;" horiz-adv-x="748" 
d="M209 760l75 122h115l-87 -122h-103zM392 760l76 122h115l-87 -122h-104zM41 350q0 167 87 264.5t246 97.5t246 -97.5t87 -264.5t-87 -264.5t-246 -97.5t-246 97.5t-87 264.5zM181 350q0 -111 51.5 -179.5t141.5 -68.5q91 0 142 68.5t51 179.5t-51 179.5t-142 68.5
q-90 0 -141.5 -68.5t-51.5 -179.5z" />
    <glyph glyph-name="ohungarumlaut" unicode="&#x151;" horiz-adv-x="611" 
d="M158 588l71 147h103l-79 -147h-95zM321 588l71 147h103l-79 -147h-95zM36 262q0 127 72.5 200.5t196.5 73.5t196.5 -73.5t72.5 -200.5t-72.5 -200.5t-196.5 -73.5t-196.5 73.5t-72.5 200.5zM169 262q0 -76 37 -123t99 -47q63 0 100 47t37 123t-37 123t-100 47
q-62 0 -99 -47t-37 -123z" />
    <glyph glyph-name="OE" unicode="&#x152;" horiz-adv-x="1055" 
d="M41 350q0 164 83.5 257t236.5 93h639v-110h-370v-182h290v-104h-290v-194h384v-110h-653q-153 0 -236.5 93t-83.5 257zM181 350q0 -110 50 -172.5t145 -62.5h114v470h-114q-95 0 -145 -62.5t-50 -172.5z" />
    <glyph glyph-name="oe" unicode="&#x153;" horiz-adv-x="1002" 
d="M967 238v-15h-391q7 -70 44.5 -105t97.5 -35q82 0 114 68l129 -8q-21 -73 -83 -114t-154 -41q-155 0 -218 109q-62 -109 -206 -109q-120 0 -192 73.5t-72 200.5t72 200.5t192 73.5q144 0 206 -110q60 110 211 110q250 0 250 -298zM577 308h258q-4 63 -36.5 98t-87.5 35
t-90.5 -33.5t-43.5 -99.5zM305 92q63 0 100 47t37 123t-37 123t-100 47q-62 0 -99 -47t-37 -123t37 -123t99 -47z" />
    <glyph glyph-name="Racute" unicode="&#x154;" horiz-adv-x="693" 
d="M512 882l-118 -122h-103l85 122h136zM672 0h-167l-186 271h-101v-271h-140v700h312q69 0 124 -20.5t92 -71.5t37 -126q0 -91 -48 -141t-129 -64zM218 588v-212h155q61 0 95.5 27t34.5 79t-34.5 79t-95.5 27h-155z" />
    <glyph glyph-name="racute" unicode="&#x155;" horiz-adv-x="431" 
d="M145 588l76 147h138l-111 -147h-103zM340 535q31 0 60 -8v-117q-51 7 -79 7q-64 0 -94.5 -39t-30.5 -127v-251h-135l1 524h124v-101q46 112 154 112z" />
    <glyph glyph-name="Rcommaaccent" unicode="&#x156;" horiz-adv-x="693" 
d="M466 277l206 -277h-167l-186 271h-101v-271h-140v700h312q69 0 124 -20.5t92 -71.5t37 -126q0 -91 -48 -141t-129 -64zM218 588v-212h155q61 0 95.5 27t34.5 79t-34.5 79t-95.5 27h-155zM290 -230v180h117v-75l-63 -105h-54z" />
    <glyph glyph-name="rcommaaccent" unicode="&#x157;" horiz-adv-x="431" 
d="M340 535q31 0 60 -8v-117q-51 7 -79 7q-64 0 -94.5 -39t-30.5 -127v-251h-135l1 524h124v-101q46 112 154 112zM70 -230v180h117v-75l-62 -105h-55z" />
    <glyph glyph-name="Rcaron" unicode="&#x158;" horiz-adv-x="693" 
d="M423 759h-149l-101 121h96l80 -81l80 81h95zM672 0h-167l-186 271h-101v-271h-140v700h312q69 0 124 -20.5t92 -71.5t37 -126q0 -91 -48 -141t-129 -64zM218 588v-212h155q61 0 95.5 27t34.5 79t-34.5 79t-95.5 27h-155z" />
    <glyph glyph-name="rcaron" unicode="&#x159;" horiz-adv-x="431" 
d="M289 732h92l-95 -147h-139l-95 147h93l72 -100zM340 535q31 0 60 -8v-117q-51 7 -79 7q-64 0 -94.5 -39t-30.5 -127v-251h-135l1 524h124v-101q46 112 154 112z" />
    <glyph glyph-name="Sacute" unicode="&#x15a;" horiz-adv-x="638" 
d="M261 760l85 122h136l-118 -122h-103zM28 228l131 5q9 -135 164 -135q60 0 100 20.5t40 66.5q0 33 -25.5 53t-87.5 40l-146 48q-150 49 -150 187q0 67 36 113.5t91 66t125 19.5q116 0 191.5 -57.5t82.5 -161.5l-131 -7q-4 53 -39 84.5t-105 31.5q-55 0 -83 -21t-28 -57
q0 -31 22.5 -52t71.5 -37l146 -47q84 -27 126.5 -72t42.5 -121q0 -104 -75.5 -155.5t-205.5 -51.5q-140 0 -214 61t-80 179z" />
    <glyph glyph-name="sacute" unicode="&#x15b;" horiz-adv-x="528" 
d="M188 588l75 147h138l-111 -147h-102zM20 159l123 4q10 -80 122 -80q105 0 105 55q0 21 -20 35t-68 28l-115 31q-130 35 -130 152q0 78 60 115t153 37q97 0 163 -40.5t75 -124.5l-122 -6q-6 37 -37 56.5t-79 19.5q-39 1 -60 -13t-21 -40q0 -40 73 -60l116 -31
q143 -37 143 -152q0 -78 -65.5 -117.5t-174.5 -39.5q-227 0 -241 171z" />
    <glyph glyph-name="Scedilla" unicode="&#x15e;" horiz-adv-x="638" 
d="M603 195q0 -102 -74 -153.5t-201 -53.5l-28 -49q28 13 54 13q35 0 62 -20t27 -61q0 -45 -32.5 -66t-78.5 -21t-75.5 20t-36.5 56l56 3q9 -30 43 -30q42 0 42 38q0 18 -11 27.5t-28 9.5q-19 0 -39 -11l-45 20l40 73q-119 9 -182 69.5t-68 168.5l131 5q9 -135 164 -135
q60 0 100 20.5t40 66.5q0 33 -25.5 53t-87.5 40l-146 48q-150 49 -150 187q0 67 36 113.5t91 66t125 19.5q116 0 191.5 -57.5t82.5 -161.5l-131 -7q-4 53 -39 84.5t-105 31.5q-55 0 -83 -21t-28 -57q0 -31 22.5 -52t71.5 -37l146 -47q84 -27 126.5 -72t42.5 -121z" />
    <glyph glyph-name="scedilla" unicode="&#x15f;" horiz-adv-x="528" 
d="M501 145q0 -77 -63 -116t-169 -41l-29 -49q30 13 54 13q35 0 62 -20t27 -61q0 -45 -32.5 -66t-78.5 -21t-75.5 20t-35.5 56l56 3q7 -30 43 -30q19 0 30.5 10t11.5 28t-11 27.5t-28 9.5q-19 0 -39 -11l-45 20l40 73q-186 15 -199 169l123 4q10 -80 122 -80q105 0 105 55
q0 21 -20 35t-68 28l-115 31q-130 35 -130 152q0 78 60 115t153 37q97 0 163 -40.5t75 -124.5l-122 -6q-6 37 -37 56.5t-79 19.5q-39 1 -60 -13t-21 -40q0 -40 73 -60l116 -31q143 -37 143 -152z" />
    <glyph glyph-name="Scaron" unicode="&#x160;" horiz-adv-x="638" 
d="M398 880h96l-101 -121h-149l-101 121h95l80 -81zM28 228l131 5q9 -135 164 -135q60 0 100 20.5t40 66.5q0 33 -25.5 53t-87.5 40l-146 48q-150 49 -150 187q0 67 36 113.5t91 66t125 19.5q116 0 191.5 -57.5t82.5 -161.5l-131 -7q-4 53 -39 84.5t-105 31.5q-55 0 -83 -21
t-28 -57q0 -31 22.5 -52t71.5 -37l146 -47q84 -27 126.5 -72t42.5 -121q0 -104 -75.5 -155.5t-205.5 -51.5q-140 0 -214 61t-80 179z" />
    <glyph glyph-name="scaron" unicode="&#x161;" horiz-adv-x="528" 
d="M331 732h93l-96 -147h-138l-95 147h92l72 -100zM20 159l123 4q10 -80 122 -80q105 0 105 55q0 21 -20 35t-68 28l-115 31q-130 35 -130 152q0 78 60 115t153 37q97 0 163 -40.5t75 -124.5l-122 -6q-6 37 -37 56.5t-79 19.5q-39 1 -60 -13t-21 -40q0 -40 73 -60l116 -31
q143 -37 143 -152q0 -78 -65.5 -117.5t-174.5 -39.5q-227 0 -241 171z" />
    <glyph glyph-name="uni0162" unicode="&#x162;" horiz-adv-x="617" 
d="M379 0h-53l-35 -61q28 13 54 13q35 0 62 -20t27 -61q0 -45 -32.5 -66t-78.5 -21t-75.5 20t-36.5 56l56 3q9 -30 43 -30q42 0 42 38q0 37 -39 37q-19 0 -39 -11l-45 20l46 83h-36v585h-217v115h573v-115h-216v-585z" />
    <glyph glyph-name="uni0163" unicode="&#x163;" horiz-adv-x="418" 
d="M310 -48q34 0 61.5 -20.5t27.5 -60.5q0 -45 -33 -66t-79 -21t-75.5 20t-35.5 56l56 3q7 -30 43 -30q42 0 42 38q0 18 -11 27.5t-28 9.5q-19 0 -39 -11l-45 20l44 80q-58 11 -85 48t-27 110v269h-109v98h79q20 0 28.5 8t8.5 26v88h127v-120h124v-100h-124v-249
q0 -42 12.5 -57.5t50.5 -15.5q28 0 61 5v-108q-47 -7 -87 -7h-11l-31 -53q30 13 55 13z" />
    <glyph glyph-name="Tcaron" unicode="&#x164;" horiz-adv-x="617" 
d="M389 880h95l-100 -121h-150l-101 121h96l80 -81zM22 585v115h573v-115h-216v-585h-140v585h-217z" />
    <glyph glyph-name="tcaron" unicode="&#x165;" horiz-adv-x="417" 
d="M312 565v171h95v-67l-48 -104h-47zM384 424h-124v-249q0 -42 12.5 -57.5t50.5 -15.5q28 0 61 5v-108q-47 -7 -87 -7q-89 0 -130 37t-41 126v269h-109v98h79q20 0 28.5 8t8.5 26v88h127v-120h124v-100z" />
    <glyph glyph-name="Tbar" unicode="&#x166;" horiz-adv-x="617" 
d="M595 585h-216v-145h143v-80h-143v-360h-140v360h-144v80h144v145h-217v115h573v-115z" />
    <glyph glyph-name="tbar" unicode="&#x167;" horiz-adv-x="418" 
d="M384 424h-124v-99h111v-91h-111v-59q0 -42 12.5 -57.5t50.5 -15.5q28 0 61 5v-108q-47 -7 -87 -7q-89 0 -130 37t-41 126v79h-92v91h92v99h-109v98h79q20 0 28.5 8t8.5 26v88h127v-120h124v-100z" />
    <glyph glyph-name="Umacron" unicode="&#x16a;" horiz-adv-x="747" 
d="M206 763v92h334v-92h-334zM78 272v428h140v-418q0 -179 155 -179q80 0 117.5 44.5t37.5 134.5v418h140v-428q0 -284 -295 -284t-295 284z" />
    <glyph glyph-name="umacron" unicode="&#x16b;" horiz-adv-x="607" 
d="M147 611v89h315v-89h-315zM412 524h134v-524h-125v98q-53 -110 -183 -110q-88 0 -134.5 54t-46.5 154v328h134v-288q0 -138 100 -138q59 0 90 44.5t31 115.5v266z" />
    <glyph glyph-name="Uring" unicode="&#x16e;" horiz-adv-x="747" 
d="M373 949q47 0 80 -26.5t33 -75.5q0 -50 -33 -76.5t-80 -26.5q-46 0 -79 26.5t-33 76.5q0 49 33 75.5t79 26.5zM373 801q21 0 36 12.5t15 33.5q0 20 -15 32.5t-36 12.5t-35.5 -12.5t-14.5 -32.5q0 -21 14.5 -33.5t35.5 -12.5zM78 272v428h140v-418q0 -179 155 -179
q80 0 117.5 44.5t37.5 134.5v418h140v-428q0 -284 -295 -284t-295 284z" />
    <glyph glyph-name="uring" unicode="&#x16f;" horiz-adv-x="607" 
d="M305 791q47 0 80 -27t33 -77q0 -51 -33 -77.5t-80 -26.5t-80 26.5t-33 77.5q0 50 33 77t80 27zM305 639q21 0 35.5 13t14.5 35t-14.5 34.5t-35.5 12.5t-35.5 -12.5t-14.5 -34.5t14.5 -35t35.5 -13zM412 524h134v-524h-125v98q-53 -110 -183 -110q-88 0 -134.5 54
t-46.5 154v328h134v-288q0 -138 100 -138q59 0 90 44.5t31 115.5v266z" />
    <glyph glyph-name="Uhungarumlaut" unicode="&#x170;" horiz-adv-x="747" 
d="M208 760l75 122h115l-87 -122h-103zM392 760l75 122h115l-87 -122h-103zM78 272v428h140v-418q0 -179 155 -179q80 0 117.5 44.5t37.5 134.5v418h140v-428q0 -284 -295 -284t-295 284z" />
    <glyph glyph-name="uhungarumlaut" unicode="&#x171;" horiz-adv-x="607" 
d="M158 588l71 147h102l-78 -147h-95zM321 588l71 147h103l-79 -147h-95zM412 524h134v-524h-125v98q-53 -110 -183 -110q-88 0 -134.5 54t-46.5 154v328h134v-288q0 -138 100 -138q59 0 90 44.5t31 115.5v266z" />
    <glyph glyph-name="Uogonek" unicode="&#x172;" horiz-adv-x="747" 
d="M528 700h140v-428q0 -228 -189 -273q-33 -21 -53 -35.5t-37.5 -37t-17.5 -43.5q0 -33 30 -33q33 0 45 47l49 -14q-10 -40 -39.5 -63.5t-73.5 -23.5q-42 0 -68.5 21.5t-26.5 59.5q0 66 93 111h-7q-295 0 -295 284v428h140v-418q0 -179 155 -179q80 0 117.5 44.5
t37.5 134.5v418z" />
    <glyph glyph-name="uogonek" unicode="&#x173;" horiz-adv-x="607" 
d="M511 -103l49 -14q-10 -40 -39.5 -63.5t-73.5 -23.5q-42 0 -68 21.5t-26 59.5q0 44 32.5 72t86.5 51h-51v98q-53 -110 -183 -110q-88 0 -134.5 54t-46.5 154v328h134v-288q0 -138 100 -138q59 0 90 44.5t31 115.5v266h134v-524q-33 -20 -53.5 -35t-38.5 -37.5t-18 -44.5
q0 -33 31 -33q32 0 44 47z" />
    <glyph glyph-name="Wcircumflex" unicode="&#x174;" horiz-adv-x="993" 
d="M497 844l-80 -82h-95l100 121h150l100 -121h-95zM827 700h145l-157 -700h-207l-111 598l-115 -598h-208l-153 700h149l115 -592l115 592h197l112 -591z" />
    <glyph glyph-name="wcircumflex" unicode="&#x175;" horiz-adv-x="880" 
d="M440 688l-72 -100h-92l95 147h139l95 -147h-93zM717 524h144l-145 -524h-188l-86 455l-88 -455h-192l-142 524h147l97 -424l87 424h185l83 -412z" />
    <glyph glyph-name="Ycircumflex" unicode="&#x176;" horiz-adv-x="688" 
d="M344 844l-80 -82h-95l100 121h150l100 -121h-95zM523 700h152l-261 -423v-277h-140v277l-262 423h159l173 -309z" />
    <glyph glyph-name="ycircumflex" unicode="&#x177;" horiz-adv-x="580" 
d="M290 688l-72 -100h-93l95 147h139l95 -147h-92zM423 524h142l-173 -566q-27 -97 -74 -133.5t-139 -36.5q-35 0 -72 4v102q44 -2 63 -2q43 0 65 16.5t36 65.5l7 26h-79l-183 524h144l146 -469z" />
    <glyph glyph-name="Ydieresis" unicode="&#x178;" horiz-adv-x="688" 
d="M305 871v-110h-132v110h132zM515 871v-110h-132v110h132zM523 700h152l-261 -423v-277h-140v277l-262 423h159l173 -309z" />
    <glyph glyph-name="Zacute" unicode="&#x179;" horiz-adv-x="611" 
d="M470 882l-118 -122h-103l86 122h135zM193 115h395v-115h-570v97l385 488h-360v115h535v-97z" />
    <glyph glyph-name="zacute" unicode="&#x17a;" horiz-adv-x="514" 
d="M186 588l76 147h137l-111 -147h-102zM188 104h305v-104h-475v92l295 328h-275v104h446v-92z" />
    <glyph glyph-name="Zdotaccent" unicode="&#x17b;" horiz-adv-x="611" 
d="M381 872v-113h-149v113h149zM193 115h395v-115h-570v97l385 488h-360v115h535v-97z" />
    <glyph glyph-name="zdotaccent" unicode="&#x17c;" horiz-adv-x="514" 
d="M187 598v129h141v-129h-141zM188 104h305v-104h-475v92l295 328h-275v104h446v-92z" />
    <glyph glyph-name="Zcaron" unicode="&#x17d;" horiz-adv-x="611" 
d="M382 759h-150l-101 121h96l80 -81l80 81h95zM193 115h395v-115h-570v97l385 488h-360v115h535v-97z" />
    <glyph glyph-name="zcaron" unicode="&#x17e;" horiz-adv-x="514" 
d="M329 732h93l-95 -147h-139l-95 147h93l72 -100zM188 104h305v-104h-475v92l295 328h-275v104h446v-92z" />
    <glyph glyph-name="Scommaaccent" unicode="&#x218;" horiz-adv-x="638" 
d="M28 228l131 5q9 -135 164 -135q60 0 100 20.5t40 66.5q0 33 -25.5 53t-87.5 40l-146 48q-150 49 -150 187q0 67 36 113.5t91 66t125 19.5q116 0 191.5 -57.5t82.5 -161.5l-131 -7q-4 53 -39 84.5t-105 31.5q-55 0 -83 -21t-28 -57q0 -31 22.5 -52t71.5 -37l146 -47
q84 -27 126.5 -72t42.5 -121q0 -104 -75.5 -155.5t-205.5 -51.5q-140 0 -214 61t-80 179zM260 -230v180h117v-75l-63 -105h-54z" />
    <glyph glyph-name="scommaaccent" unicode="&#x219;" horiz-adv-x="528" 
d="M20 159l123 4q10 -80 122 -80q105 0 105 55q0 21 -20 35t-68 28l-115 31q-130 35 -130 152q0 78 60 115t153 37q97 0 163 -40.5t75 -124.5l-122 -6q-6 37 -37 56.5t-79 19.5q-39 1 -60 -13t-21 -40q0 -40 73 -60l116 -31q143 -37 143 -152q0 -78 -65.5 -117.5
t-174.5 -39.5q-227 0 -241 171zM200 -230v180h118v-75l-63 -105h-55z" />
    <glyph glyph-name="uni021A" unicode="&#x21a;" horiz-adv-x="617" 
d="M22 585v115h573v-115h-216v-585h-140v585h-217zM250 -230v180h117v-75l-63 -105h-54z" />
    <glyph glyph-name="uni021B" unicode="&#x21b;" horiz-adv-x="418" 
d="M384 424h-124v-249q0 -42 12.5 -57.5t50.5 -15.5q28 0 61 5v-108q-47 -7 -87 -7q-89 0 -130 37t-41 126v269h-109v98h79q20 0 28.5 8t8.5 26v88h127v-120h124v-100zM216 -230v180h117v-75l-63 -105h-54z" />
    <glyph glyph-name="circumflex" unicode="&#x2c6;" horiz-adv-x="409" 
d="M40 588l95 147h139l95 -147h-93l-72 100l-71 -100h-93z" />
    <glyph glyph-name="caron" unicode="&#x2c7;" horiz-adv-x="409" 
d="M40 732h93l71 -100l72 100h93l-95 -147h-139z" />
    <glyph glyph-name="breve" unicode="&#x2d8;" horiz-adv-x="399" 
d="M40 737h76q6 -72 84 -72q77 0 83 72h76q-2 -69 -41.5 -110t-117.5 -41t-118 41t-42 110z" />
    <glyph glyph-name="dotaccent" unicode="&#x2d9;" horiz-adv-x="221" 
d="M40 598v129h141v-129h-141z" />
    <glyph glyph-name="ring" unicode="&#x2da;" horiz-adv-x="305" 
d="M40 687q0 50 33 77t80 27q46 0 79 -27t33 -77q0 -51 -32.5 -77.5t-79.5 -26.5t-80 26.5t-33 77.5zM102 687q0 -22 15 -35t36 -13t35.5 13t14.5 35t-14.5 34.5t-35.5 12.5t-36 -12.5t-15 -34.5z" />
    <glyph glyph-name="ogonek" unicode="&#x2db;" horiz-adv-x="287" 
d="M40 -123q0 44 33 72t87 51h73q-51 -31 -80 -58.5t-29 -58.5q0 -33 30 -33q33 0 45 47l48 -14q-9 -40 -38.5 -63.5t-73.5 -23.5q-42 0 -68.5 21.5t-26.5 59.5z" />
    <glyph glyph-name="tilde" unicode="&#x2dc;" horiz-adv-x="413" 
d="M40 595q0 118 92 118q41 0 82.5 -26.5t56.5 -26.5q32 0 32 44h70q0 -118 -92 -118q-41 0 -83 26.5t-56 26.5q-32 0 -32 -44h-70z" />
    <glyph glyph-name="hungarumlaut" unicode="&#x2dd;" horiz-adv-x="417" 
d="M40 588l71 147h103l-79 -147h-95zM203 588l71 147h103l-79 -147h-95z" />
    <glyph glyph-name="pi" unicode="&#x3c0;" horiz-adv-x="649" 
d="M612 424h-79v-260q0 -35 10 -47.5t31 -12.5t36 2v-108q-52 -4 -72 -4q-73 0 -103 31.5t-30 105.5v293h-172v-424h-131v424h-77v100h587v-100z" />
    <glyph glyph-name="uni0401" unicode="&#x401;" horiz-adv-x="643" 
d="M153 761v110h132v-110h-132zM363 761v110h132v-110h-132zM78 0v700h510v-110h-370v-182h290v-104h-290v-194h384v-110h-524z" />
    <glyph glyph-name="uni0404" unicode="&#x404;" horiz-adv-x="702" 
d="M535 239l135 -9q-18 -113 -95 -177.5t-205 -64.5q-155 0 -242 99t-87 263t84.5 263t235.5 99q122 0 201 -61.5t99 -168.5l-134 -10q-13 57 -58.5 91.5t-107.5 34.5q-75 0 -120 -53t-56 -137h238v-104h-239q10 -92 59 -147t127 -55q66 0 109 38t56 99z" />
    <glyph glyph-name="uni0406" unicode="&#x406;" horiz-adv-x="296" 
d="M78 0v700h140v-700h-140z" />
    <glyph glyph-name="uni0407" unicode="&#x407;" horiz-adv-x="296" 
d="M-2 761v110h118v-110h-118zM180 761v110h118v-110h-118zM78 0v700h140v-700h-140z" />
    <glyph glyph-name="uni040E" unicode="&#x40e;" horiz-adv-x="675" 
d="M338 756q-80 0 -121 38.5t-43 103.5h87q3 -27 21.5 -47t55.5 -20q38 0 56 20t21 47h87q-2 -65 -43 -103.5t-121 -38.5zM510 700h152l-195 -507q-40 -109 -90.5 -154t-131.5 -45q-51 0 -104 7v108q44 -4 75 -4q38 0 62.5 15t40.5 59l6 17h-63l-244 504h156l191 -430z" />
    <glyph glyph-name="uni0410" unicode="&#x410;" horiz-adv-x="699" 
d="M543 0l-51 163h-289l-51 -163h-138l228 700h215l229 -700h-143zM348 624l-111 -354h221z" />
    <glyph glyph-name="uni0411" unicode="&#x411;" horiz-adv-x="673" 
d="M380 422q113 0 186.5 -51t73.5 -160q0 -74 -37.5 -123t-94 -68.5t-128.5 -19.5h-302v700h508v-109h-368v-169h162zM367 109q133 0 133 103q0 104 -133 104h-149v-207h149z" />
    <glyph glyph-name="uni0412" unicode="&#x412;" horiz-adv-x="692" 
d="M427 360q103 -6 165.5 -48t62.5 -125q0 -91 -72.5 -139t-185.5 -48h-319v700h312q109 0 176.5 -43t67.5 -133q0 -152 -207 -164zM218 591v-183h160q56 0 86 25t30 68q0 42 -30 66t-88 24h-158zM384 109q131 0 131 97q0 46 -31 72t-93 26h-173v-195h166z" />
    <glyph glyph-name="uni0413" unicode="&#x413;" horiz-adv-x="578" 
d="M78 0v700h472v-115h-332v-585h-140z" />
    <glyph glyph-name="uni0414" unicode="&#x414;" horiz-adv-x="695" 
d="M615 115h67v-277h-131v162h-413v-162h-131v277h53q62 131 75 585h480v-585zM475 115v470h-213q-10 -181 -32 -317q-16 -93 -40 -153h285z" />
    <glyph glyph-name="uni0415" unicode="&#x415;" horiz-adv-x="643" 
d="M78 0v700h510v-110h-370v-182h290v-104h-290v-194h384v-110h-524z" />
    <glyph glyph-name="uni0416" unicode="&#x416;" horiz-adv-x="1040" 
d="M1024 0h-165l-208 299h-64v-299h-136v299h-62l-208 -299h-165l264 362l-252 338h161l200 -294h62v294h136v-294h64l200 294h161l-252 -338z" />
    <glyph glyph-name="uni0417" unicode="&#x417;" horiz-adv-x="639" 
d="M370 360q106 -6 169 -49t63 -129q0 -96 -78 -145t-204 -49q-135 0 -208 55.5t-86 171.5l134 7q15 -125 160 -125q70 0 106 27t36 78q0 102 -144 102h-78v104h68q133 0 133 98q0 46 -32 71.5t-89 25.5q-58 0 -97 -28t-47 -87l-133 10q12 108 84 161t193 53q73 0 130 -18
t94 -60t37 -105q0 -156 -211 -169z" />
    <glyph glyph-name="uni0418" unicode="&#x418;" horiz-adv-x="762" 
d="M465 700h218v-700h-136v597l-251 -597h-218v700h137v-597z" />
    <glyph glyph-name="uni0419" unicode="&#x419;" horiz-adv-x="762" 
d="M381 756q-80 0 -121 38.5t-43 103.5h87q3 -27 21 -47t56 -20t56 20t21 47h87q-2 -65 -43 -103.5t-121 -38.5zM465 700h218v-700h-136v597l-251 -597h-218v700h137v-597z" />
    <glyph glyph-name="uni041A" unicode="&#x41a;" horiz-adv-x="697" 
d="M681 0h-167l-223 299h-73v-299h-140v700h140v-294h70l208 294h163l-260 -339z" />
    <glyph glyph-name="uni041B" unicode="&#x41b;" horiz-adv-x="729" 
d="M152 700h499v-700h-140v585h-231q-1 -33 -3 -97q-3 -98 -5.5 -144.5t-9 -117t-18 -102t-31 -67.5t-49.5 -49t-72 -13q-36 0 -75 4v113q25 -3 44 -3q15 0 26.5 8t20 26.5t14.5 39.5t10 56t6.5 68t4 83t2.5 92t3 105t4 113z" />
    <glyph glyph-name="uni041C" unicode="&#x41c;" horiz-adv-x="942" 
d="M621 700h243l-1 -700h-133v619l-164 -619h-190l-164 618v-618h-134v700h245l149 -617z" />
    <glyph glyph-name="uni041D" unicode="&#x41d;" horiz-adv-x="743" 
d="M524 700h140v-700h-140v299h-306v-299h-140v700h140v-287h306v287z" />
    <glyph glyph-name="uni041E" unicode="&#x41e;" horiz-adv-x="748" 
d="M41 350q0 167 87 264.5t246 97.5t246 -97.5t87 -264.5t-87 -264.5t-246 -97.5t-246 97.5t-87 264.5zM181 350q0 -111 51.5 -179.5t141.5 -68.5q91 0 142 68.5t51 179.5t-51 179.5t-142 68.5q-90 0 -141.5 -68.5t-51.5 -179.5z" />
    <glyph glyph-name="uni041F" unicode="&#x41f;" horiz-adv-x="739" 
d="M660 700v-700h-140v585h-302v-585h-140v700h582z" />
    <glyph glyph-name="uni0420" unicode="&#x420;" horiz-adv-x="669" 
d="M78 0v700h303q51 0 95 -12.5t80 -37.5t57 -69t21 -103q0 -114 -69 -164.5t-180 -50.5h-167v-263h-140zM218 371h146q130 0 130 107t-130 107h-146v-214z" />
    <glyph glyph-name="uni0421" unicode="&#x421;" horiz-adv-x="700" 
d="M41 350q0 164 84.5 263t235.5 99q125 0 203 -64.5t95 -174.5l-134 -12q-11 62 -55.5 99.5t-108.5 37.5q-89 0 -134.5 -71.5t-45.5 -176.5q0 -110 50.5 -179t138.5 -69q68 0 111 41.5t53 105.5l134 -9q-15 -118 -91.5 -185t-206.5 -67q-156 0 -242.5 98t-86.5 264z" />
    <glyph glyph-name="uni0422" unicode="&#x422;" horiz-adv-x="617" 
d="M22 585v115h573v-115h-216v-585h-140v585h-217z" />
    <glyph glyph-name="uni0423" unicode="&#x423;" horiz-adv-x="675" 
d="M510 700h152l-195 -507q-40 -109 -90.5 -154t-131.5 -45q-51 0 -104 7v108q44 -4 75 -4q38 0 62.5 15t40.5 59l6 17h-63l-244 504h156l191 -430z" />
    <glyph glyph-name="uni0424" unicode="&#x424;" horiz-adv-x="874" 
d="M520 651q149 0 232 -74.5t83 -210.5q0 -135 -83 -210t-232 -75h-15v-81h-136v81h-15q-149 0 -232.5 75t-83.5 210q0 136 83.5 210.5t232.5 74.5h15v61h136v-61h15zM361 190h8v353h-8q-85 0 -134 -47t-49 -130q0 -82 49 -129t134 -47zM512 190q86 0 134.5 47t48.5 129
q0 83 -48.5 130t-134.5 47h-7v-353h7z" />
    <glyph glyph-name="uni0425" unicode="&#x425;" horiz-adv-x="677" 
d="M19 0l240 357l-219 343h160l139 -234l139 234h154l-218 -337l242 -363h-161l-160 253l-162 -253h-154z" />
    <glyph glyph-name="uni0426" unicode="&#x426;" horiz-adv-x="740" 
d="M78 0v700h140v-585h302v585h140v-585h67v-277h-131v162h-518z" />
    <glyph glyph-name="uni0427" unicode="&#x427;" horiz-adv-x="695" 
d="M477 700h140v-700h-140v282q-90 -26 -185 -26q-236 0 -236 220v224h140v-199q0 -72 33.5 -101.5t103.5 -29.5q73 0 144 27v303z" />
    <glyph glyph-name="uni0428" unicode="&#x428;" horiz-adv-x="1016" 
d="M78 0v700h137v-585h225v585h136v-585h225v585h137v-700h-860z" />
    <glyph glyph-name="uni0429" unicode="&#x429;" horiz-adv-x="1018" 
d="M78 0v700h137v-585h225v585h136v-585h225v585h137v-585h66v-277h-130v162h-796z" />
    <glyph glyph-name="uni042A" unicode="&#x42a;" horiz-adv-x="752" 
d="M468 436q71 0 125.5 -20t91 -70.5t36.5 -126.5q0 -112 -72 -165.5t-181 -53.5h-297v585h-151v115h291v-264h157zM451 115q130 0 130 104q0 105 -130 105h-140v-209h140z" />
    <glyph glyph-name="uni042B" unicode="&#x42b;" horiz-adv-x="910" 
d="M361 436q71 0 125.5 -20t91 -70.5t36.5 -126.5q0 -112 -72 -165.5t-181 -53.5h-283v700h140v-264h143zM692 700h140v-700h-140v700zM344 115q130 0 130 104q0 105 -130 105h-126v-209h126z" />
    <glyph glyph-name="uni042C" unicode="&#x42c;" horiz-adv-x="659" 
d="M375 436q71 0 125.5 -20t91 -70.5t36.5 -126.5q0 -112 -72 -165.5t-181 -53.5h-297v700h140v-264h157zM358 115q130 0 130 104q0 105 -130 105h-140v-209h140z" />
    <glyph glyph-name="uni042D" unicode="&#x42d;" horiz-adv-x="702" 
d="M341 712q151 0 235.5 -99t84.5 -263t-87 -263t-242 -99q-128 0 -205 64.5t-95 177.5l135 9q13 -61 56 -99t109 -38q78 0 127 55t59 147h-239v104h238q-11 84 -55.5 137t-120.5 53q-61 0 -107 -34.5t-59 -91.5l-134 10q20 107 99 168.5t201 61.5z" />
    <glyph glyph-name="uni042E" unicode="&#x42e;" horiz-adv-x="1008" 
d="M645 712q158 0 240 -96t82 -266t-82 -266t-240 -96q-146 0 -227.5 82t-92.5 229h-107v-299h-140v700h140v-287h108q15 142 96 220.5t223 78.5zM645 102q89 0 135.5 67t46.5 181t-46.5 181t-135.5 67t-136 -67t-47 -181t47 -181t136 -67z" />
    <glyph glyph-name="uni042F" unicode="&#x42f;" horiz-adv-x="693" 
d="M615 700v-700h-140v271h-117l-170 -271h-167l194 277q-80 14 -127 64.5t-47 140.5q0 111 72.5 164.5t181.5 53.5h320zM475 376v212h-164q-61 0 -95.5 -27t-34.5 -79t34.5 -79t95.5 -27h164z" />
    <glyph glyph-name="uni0430" unicode="&#x430;" horiz-adv-x="586" 
d="M38 143q0 145 220 166l137 14v26q0 42 -25 67t-76 25q-45 0 -73.5 -20t-31.5 -59h-122q3 91 66 132.5t161 41.5q113 0 174 -54t61 -161v-321h-125v95q-55 -107 -191 -107q-85 0 -130 43t-45 112zM171 150q0 -31 21.5 -50t63.5 -19q62 0 100.5 39.5t38.5 97.5v23l-120 -12
q-104 -10 -104 -79z" />
    <glyph glyph-name="uni0431" unicode="&#x431;" horiz-adv-x="617" 
d="M338 505q107 0 174.5 -70t67.5 -188q0 -120 -71.5 -189.5t-197.5 -69.5q-269 0 -269 340q0 162 50 253t159 119q31 8 152 23q78 11 123 25v-104q-29 -17 -110 -28q-14 -2 -45.5 -5.5t-53.5 -6.5q-37 -5 -63.5 -16t-52 -36.5t-41.5 -73t-22 -117.5q21 68 72.5 106
t127.5 38zM311 92q64 0 100.5 42t36.5 113q0 70 -36.5 112t-100.5 42q-63 0 -99.5 -42t-36.5 -112t36.5 -112.5t99.5 -42.5z" />
    <glyph glyph-name="uni0432" unicode="&#x432;" horiz-adv-x="572" 
d="M379 272q160 -17 160 -127q0 -61 -48.5 -103t-159.5 -42h-270v524h256q103 0 153.5 -36t50.5 -96q0 -100 -142 -120zM195 425v-115h113q79 0 79 58q0 57 -85 57h-107zM320 99q86 0 86 63q0 62 -91 62h-120v-125h125z" />
    <glyph glyph-name="uni0433" unicode="&#x433;" horiz-adv-x="474" 
d="M61 0v524h389v-110h-255v-414h-134z" />
    <glyph glyph-name="uni0434" unicode="&#x434;" horiz-adv-x="603" 
d="M519 110h67v-249h-126v139h-322v-139h-127v249h42q21 47 30 127.5t19 250.5q1 24 2 36h415v-414zM385 110v304h-167q-1 -14 -3.5 -47t-3 -44.5t-3 -37.5t-3.5 -36.5t-3 -31t-4 -31t-5 -25.5t-6 -27t-7 -24h205z" />
    <glyph glyph-name="uni0435" unicode="&#x435;" horiz-adv-x="597" 
d="M36 262q0 136 73.5 205t196.5 69q256 0 256 -298v-15h-391q7 -70 44.5 -105t97.5 -35q82 0 114 68l128 -8q-20 -74 -83 -114.5t-159 -40.5q-128 0 -202.5 68.5t-74.5 205.5zM171 308h259q-4 63 -36.5 98t-87.5 35t-90.5 -33.5t-44.5 -99.5z" />
    <glyph glyph-name="uni0436" unicode="&#x436;" horiz-adv-x="851" 
d="M843 0h-162l-149 212h-42v-212h-129v212h-42l-148 -212h-163l215 275l-205 249h155l144 -208h44v208h129v-208h44l144 208h155l-205 -249z" />
    <glyph glyph-name="uni0437" unicode="&#x437;" horiz-adv-x="551" 
d="M355 272q163 -18 163 -132q0 -65 -55 -108.5t-187 -43.5q-239 0 -252 181l130 5q7 -84 122 -84q109 0 109 69q0 65 -117 65h-55v86h49q104 0 104 62q0 29 -24.5 45.5t-64.5 16.5q-96 0 -106 -79l-129 6q6 90 70.5 132.5t164.5 42.5q113 0 168 -37t55 -101
q0 -106 -145 -126z" />
    <glyph glyph-name="uni0438" unicode="&#x438;" horiz-adv-x="635" 
d="M375 524h199v-524h-129v422l-185 -422h-199v524h129v-422z" />
    <glyph glyph-name="uni0439" unicode="&#x439;" horiz-adv-x="635" 
d="M318 588q-78 0 -118 40t-42 109h87q3 -30 20 -52t53 -22q35 0 52 22t20 52h87q-2 -69 -41.5 -109t-117.5 -40zM375 524h199v-524h-129v422l-185 -422h-199v524h129v-422z" />
    <glyph glyph-name="uni043A" unicode="&#x43a;" horiz-adv-x="577" 
d="M569 0h-165l-161 212h-48v-212h-134v524h134v-208h49l152 208h158l-215 -249z" />
    <glyph glyph-name="uni043B" unicode="&#x43b;" horiz-adv-x="597" 
d="M122 524h413v-524h-134v414h-162q-2 -26 -5 -76q-4 -72 -7 -105t-10 -82.5t-16.5 -71t-26 -45.5t-41 -32.5t-58.5 -8.5q-33 0 -56 4v109q11 -2 24 -2q14 0 25 10t18.5 33.5t12 47.5t8 66.5t5.5 76t5 91t5 95.5z" />
    <glyph glyph-name="uni043C" unicode="&#x43c;" horiz-adv-x="805" 
d="M523 524h220v-524h-128v429l-132 -429h-161l-132 429v-429h-129v524h222l121 -444z" />
    <glyph glyph-name="uni043D" unicode="&#x43d;" horiz-adv-x="611" 
d="M61 0v524h134v-202h221v202h134v-524h-134v212h-221v-212h-134z" />
    <glyph glyph-name="uni043E" unicode="&#x43e;" horiz-adv-x="611" 
d="M36 262q0 127 72.5 200.5t196.5 73.5t196.5 -73.5t72.5 -200.5t-72.5 -200.5t-196.5 -73.5t-196.5 73.5t-72.5 200.5zM169 262q0 -76 37 -123t99 -47q63 0 100 47t37 123t-37 123t-100 47q-62 0 -99 -47t-37 -123z" />
    <glyph glyph-name="uni043F" unicode="&#x43f;" horiz-adv-x="605" 
d="M61 0v524h483v-524h-134v414h-215v-414h-134z" />
    <glyph glyph-name="uni0440" unicode="&#x440;" horiz-adv-x="624" 
d="M61 -200v724h125v-96q56 108 177 108q99 0 161.5 -73.5t62.5 -200.5t-62.5 -200.5t-160.5 -73.5q-112 0 -169 95v-283h-134zM189 262q0 -76 36 -123t97 -47t97 47t36 123t-36 123t-97 47t-97 -47t-36 -123z" />
    <glyph glyph-name="uni0441" unicode="&#x441;" horiz-adv-x="580" 
d="M36 262q0 131 70 202.5t191 71.5q100 0 167.5 -51t78.5 -143l-128 -11q-10 49 -41.5 75t-76.5 26q-59 0 -93.5 -45t-34.5 -125t35 -125t96 -45q49 0 80 27.5t41 77.5l129 -8q-11 -96 -79 -148.5t-171 -52.5q-123 0 -193.5 71t-70.5 203z" />
    <glyph glyph-name="uni0442" unicode="&#x442;" horiz-adv-x="525" 
d="M20 414v110h484v-110h-174v-414h-134v414h-176z" />
    <glyph glyph-name="uni0443" unicode="&#x443;" horiz-adv-x="580" 
d="M423 524h142l-173 -566q-27 -97 -74 -133.5t-139 -36.5q-35 0 -72 4v102q44 -2 63 -2q43 0 65 16.5t36 65.5l7 26h-79l-183 524h144l146 -469z" />
    <glyph glyph-name="uni0444" unicode="&#x444;" horiz-adv-x="789" 
d="M467 536q137 0 210 -73t73 -201t-73 -201t-210 -73h-7v-188h-130v188h-7q-137 0 -210.5 73.5t-73.5 200.5t73.5 200.5t210.5 73.5h7v200h130v-200h7zM327 92h3v340h-3q-73 0 -115 -45.5t-42 -124.5t42 -124.5t115 -45.5zM464 92q73 0 114 45.5t41 124.5t-41 124.5
t-114 45.5h-4v-340h4z" />
    <glyph glyph-name="uni0445" unicode="&#x445;" horiz-adv-x="588" 
d="M569 0h-159l-120 175l-118 -175h-154l196 265l-185 259h160l105 -166l107 166h153l-183 -255z" />
    <glyph glyph-name="uni0446" unicode="&#x446;" horiz-adv-x="628" 
d="M61 0v524h134v-414h215v414h134v-414h66v-249h-126v139h-423z" />
    <glyph glyph-name="uni0447" unicode="&#x447;" horiz-adv-x="581" 
d="M385 524h134v-524h-134v198q-87 -17 -153 -17q-187 0 -187 191v152h134v-136q0 -55 23 -76.5t77 -21.5q47 0 106 19v215z" />
    <glyph glyph-name="uni0448" unicode="&#x448;" horiz-adv-x="881" 
d="M61 0v524h132v-414h182v414h131v-414h183v414h131v-524h-759z" />
    <glyph glyph-name="uni0449" unicode="&#x449;" horiz-adv-x="904" 
d="M61 0v524h132v-414h182v414h131v-414h183v414h131v-414h66v-249h-126v139h-699z" />
    <glyph glyph-name="uni044A" unicode="&#x44a;" horiz-adv-x="639" 
d="M388 342q219 0 219 -171t-219 -171h-188h-61v414h-119v110h253v-182h115zM378 102q95 0 95 70q0 71 -95 71h-105v-141h105z" />
    <glyph glyph-name="uni044B" unicode="&#x44b;" horiz-adv-x="785" 
d="M298 342q220 0 220 -171t-220 -171h-176h-61v524h134v-182h103zM589 524h134v-524h-134v524zM289 102q95 0 95 70q0 71 -95 71h-94v-141h94z" />
    <glyph glyph-name="uni044C" unicode="&#x44c;" horiz-adv-x="561" 
d="M310 342q220 0 220 -171t-220 -171h-188h-61v524h134v-182h115zM301 102q95 0 95 70q0 71 -95 71h-106v-141h106z" />
    <glyph glyph-name="uni044D" unicode="&#x44d;" horiz-adv-x="579" 
d="M282 536q121 0 190.5 -71.5t69.5 -202.5q0 -132 -70.5 -203t-193.5 -71q-100 0 -167 49.5t-81 141.5l130 7q12 -46 42.5 -71.5t75.5 -25.5q53 0 87.5 35t41.5 99h-170v88h169q-10 59 -42.5 91.5t-81.5 32.5q-42 0 -73 -24t-42 -68l-130 8q14 88 81 136.5t164 48.5z" />
    <glyph glyph-name="uni044E" unicode="&#x44e;" horiz-adv-x="838" 
d="M539 536q122 0 192 -72.5t70 -201.5t-70 -201.5t-192 -72.5q-109 0 -177 58.5t-81 165.5h-86v-212h-134v524h134v-202h87q16 102 83.5 158t173.5 56zM539 92q60 0 95 45.5t35 124.5t-35 124.5t-95 45.5t-94.5 -45.5t-34.5 -124.5t34.5 -124.5t94.5 -45.5z" />
    <glyph glyph-name="uni044F" unicode="&#x44f;" horiz-adv-x="575" 
d="M257 524h256v-524h-134v199h-75l-122 -199h-158l151 207q-131 27 -131 154q0 80 54.5 121.5t158.5 41.5zM379 284v138h-106q-46 0 -70.5 -18t-24.5 -51t24.5 -51t70.5 -18h106z" />
    <glyph glyph-name="uni0451" unicode="&#x451;" horiz-adv-x="597" 
d="M142 598v118h119v-118h-119zM331 598v118h119v-118h-119zM36 262q0 136 73.5 205t196.5 69q256 0 256 -298v-15h-391q7 -70 44.5 -105t97.5 -35q82 0 114 68l128 -8q-20 -74 -83 -114.5t-159 -40.5q-128 0 -202.5 68.5t-74.5 205.5zM171 308h259q-4 63 -36.5 98t-87.5 35
t-90.5 -33.5t-44.5 -99.5z" />
    <glyph glyph-name="uni0454" unicode="&#x454;" horiz-adv-x="579" 
d="M418 186l131 -7q-14 -92 -81.5 -141.5t-167.5 -49.5q-123 0 -193.5 71t-70.5 203q0 131 70 202.5t191 71.5q97 0 164 -48.5t81 -136.5l-130 -8q-12 45 -42.5 68.5t-72.5 23.5q-49 0 -81.5 -32.5t-42.5 -91.5h168v-88h-170q8 -64 42 -99t87 -35q45 0 76 25.5t42 71.5z" />
    <glyph glyph-name="uni0456" unicode="&#x456;" horiz-adv-x="261" 
d="M60 598v129h141v-129h-141zM64 0v524h133v-524h-133z" />
    <glyph glyph-name="uni0457" unicode="&#x457;" horiz-adv-x="257" 
d="M-11 598v118h111v-118h-111zM157 598v118h112v-118h-112zM62 0v524h134v-524h-134z" />
    <glyph glyph-name="uni045E" unicode="&#x45e;" horiz-adv-x="580" 
d="M290 588q-78 0 -118 40t-42 109h87q3 -30 20 -52t53 -22q64 0 73 74h87q-2 -69 -42 -109t-118 -40zM423 524h142l-173 -566q-27 -97 -74 -133.5t-139 -36.5q-35 0 -72 4v102q44 -2 63 -2q43 0 65 16.5t36 65.5l7 26h-79l-183 524h144l146 -469z" />
    <glyph glyph-name="uni0490" unicode="&#x490;" horiz-adv-x="584" 
d="M78 0v700h342v167h130v-282h-332v-585h-140z" />
    <glyph glyph-name="uni0491" unicode="&#x491;" horiz-adv-x="478" 
d="M61 0v524h262v144h127v-254h-255v-414h-134z" />
    <glyph glyph-name="uni04C1" unicode="&#x4c1;" horiz-adv-x="1040" 
d="M520 756q-80 0 -121 38.5t-43 103.5h87q3 -27 21 -47t56 -20t56 20t21 47h87q-2 -65 -43 -103.5t-121 -38.5zM1024 0h-165l-208 299h-64v-299h-136v299h-62l-208 -299h-165l264 362l-252 338h161l200 -294h62v294h136v-294h64l200 294h161l-252 -338z" />
    <glyph glyph-name="uni04C2" unicode="&#x4c2;" horiz-adv-x="851" 
d="M426 588q-78 0 -118 40t-42 109h87q2 -30 19.5 -52t53.5 -22q35 0 52 22t20 52h87q-2 -69 -41.5 -109t-117.5 -40zM843 0h-162l-149 212h-42v-212h-129v212h-42l-148 -212h-163l215 275l-205 249h155l144 -208h44v208h129v-208h44l144 208h155l-205 -249z" />
    <glyph glyph-name="Wgrave" unicode="&#x1e80;" horiz-adv-x="993" 
d="M555 760h-103l-119 122h136zM827 700h145l-157 -700h-207l-111 598l-115 -598h-208l-153 700h149l115 -592l115 592h197l112 -591z" />
    <glyph glyph-name="wgrave" unicode="&#x1e81;" horiz-adv-x="880" 
d="M512 588h-103l-111 147h138zM717 524h144l-145 -524h-188l-86 455l-88 -455h-192l-142 524h147l97 -424l87 424h185l83 -412z" />
    <glyph glyph-name="Wacute" unicode="&#x1e82;" horiz-adv-x="993" 
d="M661 882l-118 -122h-104l86 122h136zM827 700h145l-157 -700h-207l-111 598l-115 -598h-208l-153 700h149l115 -592l115 592h197l112 -591z" />
    <glyph glyph-name="wacute" unicode="&#x1e83;" horiz-adv-x="880" 
d="M582 735l-111 -147h-102l75 147h138zM717 524h144l-145 -524h-188l-86 455l-88 -455h-192l-142 524h147l97 -424l87 424h185l83 -412z" />
    <glyph glyph-name="Wdieresis" unicode="&#x1e84;" horiz-adv-x="993" 
d="M458 871v-110h-132v110h132zM668 871v-110h-132v110h132zM827 700h145l-157 -700h-207l-111 598l-115 -598h-208l-153 700h149l115 -592l115 592h197l112 -591z" />
    <glyph glyph-name="wdieresis" unicode="&#x1e85;" horiz-adv-x="880" 
d="M405 716v-118h-119v118h119zM594 716v-118h-119v118h119zM717 524h144l-145 -524h-188l-86 455l-88 -455h-192l-142 524h147l97 -424l87 424h185l83 -412z" />
    <glyph glyph-name="uni1E9E" unicode="&#x1e9e;" horiz-adv-x="682" 
d="M572 357q75 -56 75 -161q0 -100 -65.5 -152t-174.5 -52q-42 0 -82 8v106q25 -5 51 -5q59 0 95 29t36 83q0 53 -33.5 79.5t-91.5 26.5q-32 0 -66 -7v102l131 177h-124q-54 0 -84.5 -32t-30.5 -99v-460h-140v476q0 120 68 172t196 52h262v-91l-160 -205q84 -6 138 -47z" />
    <glyph glyph-name="Ygrave" unicode="&#x1ef2;" horiz-adv-x="688" 
d="M402 760h-103l-118 122h135zM523 700h152l-261 -423v-277h-140v277l-262 423h159l173 -309z" />
    <glyph glyph-name="ygrave" unicode="&#x1ef3;" horiz-adv-x="580" 
d="M361 588h-102l-111 147h138zM423 524h142l-173 -566q-27 -97 -74 -133.5t-139 -36.5q-35 0 -72 4v102q44 -2 63 -2q43 0 65 16.5t36 65.5l7 26h-79l-183 524h144l146 -469z" />
    <glyph glyph-name="endash" unicode="&#x2013;" horiz-adv-x="556" 
d="M52 350h453v-103h-453v103z" />
    <glyph glyph-name="emdash" unicode="&#x2014;" horiz-adv-x="685" 
d="M52 350h582v-103h-582v103z" />
    <glyph glyph-name="quoteleft" unicode="&#x2018;" horiz-adv-x="241" 
d="M180 712v-249h-130v88l74 161h56z" />
    <glyph glyph-name="quoteright" unicode="&#x2019;" horiz-adv-x="241" 
d="M60 451v249h130v-88l-73 -161h-57z" />
    <glyph glyph-name="quotesinglbase" unicode="&#x201a;" horiz-adv-x="241" 
d="M60 -98v249h130v-87l-73 -162h-57z" />
    <glyph glyph-name="quotedblleft" unicode="&#x201c;" horiz-adv-x="433" 
d="M180 712v-249h-130v88l74 161h56zM373 712v-249h-131v88l74 161h57z" />
    <glyph glyph-name="quotedblright" unicode="&#x201d;" horiz-adv-x="433" 
d="M60 451v249h130v-88l-73 -161h-57zM252 451v249h131v-88l-74 -161h-57z" />
    <glyph glyph-name="quotedblbase" unicode="&#x201e;" horiz-adv-x="433" 
d="M60 -98v249h130v-87l-73 -162h-57zM252 -98v249h131v-87l-74 -162h-57z" />
    <glyph glyph-name="dagger" unicode="&#x2020;" horiz-adv-x="448" 
d="M406 524v-98h-120v-489h-124v489h-120v98h120v176h124v-176h120z" />
    <glyph glyph-name="daggerdbl" unicode="&#x2021;" horiz-adv-x="456" 
d="M410 426h-120v-204h120v-99h-120v-186h-124v186h-120v99h120v204h-120v98h120v176h124v-176h120v-98z" />
    <glyph glyph-name="bullet" unicode="&#x2022;" horiz-adv-x="417" 
d="M208 190q-55 0 -90.5 35t-35.5 90q0 54 35.5 89.5t90.5 34.5q55 1 91 -34.5t36 -89.5q0 -55 -35.5 -90t-91.5 -35z" />
    <glyph glyph-name="ellipsis" unicode="&#x2026;" horiz-adv-x="752" 
d="M62 0v151h148v-151h-148zM302 0v151h148v-151h-148zM542 0v151h148v-151h-148z" />
    <glyph glyph-name="perthousand" unicode="&#x2030;" horiz-adv-x="1221" 
d="M28 532q0 81 47.5 127.5t127.5 46.5q81 0 128 -46.5t47 -127.5t-47 -128t-128 -47q-80 0 -127.5 47t-47.5 128zM132 0l488 700h85l-487 -700h-86zM123 532q0 -46 21.5 -72t58.5 -26t59 26t22 72t-22 71.5t-59 25.5t-58.5 -25.5t-21.5 -71.5zM460 169q0 81 47 127.5
t128 46.5t128 -46.5t47 -127.5t-47 -128t-128 -47q-80 0 -127.5 47t-47.5 128zM851 169q0 81 47 127.5t128 46.5t128 -46.5t47 -127.5t-47 -128t-128 -47t-128 47t-47 128zM553 169q0 -46 22.5 -72t59.5 -26t59 26t22 72t-22 72t-59 26t-59.5 -26t-22.5 -72zM944 169
q0 -46 22.5 -72t59.5 -26t59 26t22 72t-22 72t-59 26t-59.5 -26t-22.5 -72z" />
    <glyph glyph-name="guilsinglleft" unicode="&#x2039;" horiz-adv-x="318" 
d="M280 464l-149 -184l149 -184h-128l-126 159v50l126 159h128z" />
    <glyph glyph-name="guilsinglright" unicode="&#x203a;" horiz-adv-x="318" 
d="M166 464l126 -159v-50l-126 -159h-128l149 184l-149 184h128z" />
    <glyph glyph-name="fraction" unicode="&#x2044;" horiz-adv-x="169" 
d="M-207 0l487 700h96l-487 -700h-96z" />
    <glyph glyph-name="uni2070" unicode="&#x2070;" horiz-adv-x="469" 
d="M42 549q0 105 50 165t143 60t142.5 -59.5t49.5 -165.5t-49.5 -165.5t-142.5 -59.5t-143 59.5t-50 165.5zM146 549q0 -70 24 -105.5t65 -35.5t64.5 35.5t23.5 105.5t-23.5 105t-64.5 35t-65 -35t-24 -105z" />
    <glyph glyph-name="uni2074" unicode="&#x2074;" horiz-adv-x="452" 
d="M357 507h74v-84h-74v-90h-104v90h-235v78l170 263h169v-257zM119 507h134v206z" />
    <glyph glyph-name="uni2075" unicode="&#x2075;" horiz-adv-x="424" 
d="M241 613q69 0 109.5 -33t40.5 -101q0 -74 -50 -113.5t-131 -39.5q-72 0 -123 33t-60 95l101 7q14 -51 82 -51q35 0 56 18.5t21 50.5q0 33 -22 50.5t-58 17.5q-51 0 -75 -34l-93 9l19 242h306v-84h-228l-8 -102q39 35 113 35z" />
    <glyph glyph-name="uni2076" unicode="&#x2076;" horiz-adv-x="454" 
d="M267 608q65 0 108 -34t43 -101q0 -70 -49 -109.5t-133 -39.5q-194 0 -194 220q0 116 51 173t145 57q70 0 113.5 -32t50.5 -93l-100 -6q-4 21 -20.5 34t-43.5 13q-52 0 -75 -47q-15 -31 -16 -83q40 48 120 48zM236 408q36 0 57.5 17.5t21.5 47.5q0 31 -21.5 48.5
t-57.5 17.5t-57 -17.5t-21 -48.5q0 -30 21.5 -47.5t56.5 -17.5z" />
    <glyph glyph-name="uni2077" unicode="&#x2077;" horiz-adv-x="375" 
d="M18 764h343v-70q-131 -178 -164 -361h-111q37 177 173 347h-241v84z" />
    <glyph glyph-name="uni2078" unicode="&#x2078;" horiz-adv-x="448" 
d="M306 560q107 -28 107 -112q0 -61 -55 -92.5t-134 -31.5t-134.5 31.5t-55.5 92.5q0 43 29.5 71t79.5 40q-96 26 -96 101q0 55 51 84.5t126 29.5q74 0 125 -29.5t51 -84.5q0 -76 -94 -100zM224 697q-36 0 -56 -13.5t-20 -38.5t20 -38.5t56 -13.5q35 0 55.5 13.5t20.5 38.5
t-20.5 38.5t-55.5 13.5zM224 401q41 0 64.5 15.5t23.5 43.5t-23.5 43.5t-64.5 15.5t-65 -15.5t-24 -43.5t24 -43.5t65 -15.5z" />
    <glyph glyph-name="uni2079" unicode="&#x2079;" horiz-adv-x="454" 
d="M218 774q194 0 194 -220q0 -230 -195 -230q-70 0 -114 31.5t-51 93.5l100 6q4 -21 21 -34t44 -13q54 0 76 52q14 29 14 80q-39 -49 -120 -49q-65 0 -108 34t-43 100q0 70 49 109.5t133 39.5zM218 560q35 0 56.5 17.5t21.5 47.5t-21.5 47.5t-56.5 17.5q-36 0 -57 -17.5
t-21 -47.5t21 -47.5t57 -17.5z" />
    <glyph glyph-name="uni2080" unicode="&#x2080;" horiz-adv-x="469" 
d="M42 99q0 105 50 165t143 60t142.5 -59.5t49.5 -165.5t-49.5 -165.5t-142.5 -59.5t-143 59.5t-50 165.5zM146 99q0 -70 24 -105.5t65 -35.5t64.5 35.5t23.5 105.5t-23.5 105t-64.5 35t-65 -35t-24 -105z" />
    <glyph glyph-name="uni2081" unicode="&#x2081;" horiz-adv-x="306" 
d="M137 315h85v-431h-104v315l-83 -63v103z" />
    <glyph glyph-name="uni2082" unicode="&#x2082;" horiz-adv-x="385" 
d="M159 -34h203v-85h-346v77l137 116q33 28 48.5 42t30 35t14.5 40q0 22 -14 35t-38 13q-58 0 -65 -81l-101 8q6 80 51 119t115 39q66 0 111 -34t45 -99q0 -38 -21 -71t-77 -77z" />
    <glyph glyph-name="uni2083" unicode="&#x2083;" horiz-adv-x="402" 
d="M315 127q57 -32 57 -106q0 -73 -52 -108.5t-131 -35.5q-75 0 -123 34.5t-56 102.5l101 7q10 -60 78 -60q37 0 58 15.5t21 44.5q0 28 -19.5 44t-58.5 16q-31 0 -70 -8v70l104 88h-189v84h323v-75l-124 -90q52 -5 81 -23z" />
    <glyph glyph-name="uni2084" unicode="&#x2084;" horiz-adv-x="452" 
d="M357 58h74v-84h-74v-90h-104v90h-235v78l170 263h169v-257zM119 58h134v206z" />
    <glyph glyph-name="uni2085" unicode="&#x2085;" horiz-adv-x="424" 
d="M241 164q69 0 109.5 -33t40.5 -101q0 -74 -50 -113.5t-131 -39.5q-72 0 -123 33t-60 95l101 7q14 -51 82 -51q35 0 56 18.5t21 50.5q0 33 -22 50.5t-58 17.5q-51 0 -75 -34l-93 9l19 242h306v-84h-228l-8 -102q39 35 113 35z" />
    <glyph glyph-name="uni2086" unicode="&#x2086;" horiz-adv-x="454" 
d="M267 158q65 0 108 -34t43 -101q0 -70 -49 -109.5t-133 -39.5q-194 0 -194 220q0 116 51 173t145 57q70 0 113.5 -32t50.5 -93l-100 -6q-4 21 -20.5 34t-43.5 13q-52 0 -75 -47q-15 -31 -16 -83q41 48 120 48zM236 -42q36 0 57.5 17.5t21.5 47.5q0 31 -21.5 48.5
t-57.5 17.5t-57 -17.5t-21 -48.5q0 -30 21.5 -47.5t56.5 -17.5z" />
    <glyph glyph-name="uni2087" unicode="&#x2087;" horiz-adv-x="375" 
d="M18 315h343v-70q-131 -178 -164 -361h-111q37 177 173 347h-241v84z" />
    <glyph glyph-name="uni2088" unicode="&#x2088;" horiz-adv-x="448" 
d="M306 110q107 -28 107 -112q0 -61 -55 -92.5t-134 -31.5t-134.5 31.5t-55.5 92.5q0 43 29.5 71t79.5 40q-96 26 -96 101q0 55 51 84.5t126 29.5q74 0 125 -29.5t51 -84.5q0 -76 -94 -100zM224 247q-36 0 -56 -13.5t-20 -38.5t20 -38.5t56 -13.5q35 0 55.5 13.5t20.5 38.5
t-20.5 38.5t-55.5 13.5zM224 -49q41 0 64.5 15.5t23.5 43.5t-23.5 43.5t-64.5 15.5t-65 -15.5t-24 -43.5t24 -43.5t65 -15.5z" />
    <glyph glyph-name="uni2089" unicode="&#x2089;" horiz-adv-x="454" 
d="M218 324q194 0 194 -220q0 -230 -195 -230q-70 0 -114 31.5t-51 93.5l100 6q4 -21 21 -34t44 -13q54 0 76 52q14 29 14 80q-39 -49 -120 -49q-65 0 -108 34t-43 100q0 70 49 109.5t133 39.5zM218 110q35 0 56.5 17.5t21.5 47.5t-21.5 47.5t-56.5 17.5q-36 0 -57 -17.5
t-21 -47.5t21 -47.5t57 -17.5z" />
    <glyph glyph-name="Euro" unicode="&#x20ac;" horiz-adv-x="673" 
d="M519 218l126 -4q-19 -105 -89.5 -165.5t-184.5 -60.5q-122 0 -200 70.5t-100 192.5h-63v63h56q-1 10 -1 30t1 30h-53v63h60q21 122 97 192.5t194 70.5q107 0 177.5 -53.5t93.5 -147.5l-128 -8q-16 46 -52.5 72.5t-85.5 26.5q-62 0 -102 -42t-56 -111h229v-63h-238
q-1 -10 -1 -30q0 -5 0.5 -15t0.5 -15h234v-63h-224q18 -71 60.5 -112t103.5 -41q56 0 93.5 33t51.5 87z" />
    <glyph glyph-name="uni20B4" unicode="&#x20b4;" horiz-adv-x="587" 
d="M466 384q-28 -22 -61 -38l-47 -22h207v-51h-310q-66 -39 -66 -95q0 -43 30.5 -63.5t75.5 -20.5q52 0 87.5 24.5t39.5 76.5l126 -4q-14 -203 -251 -203q-111 0 -177 47.5t-66 134.5q0 60 32 103h-58v51h113q27 19 56 31l59 29h-228v51h326q42 31 42 79q0 37 -23.5 58.5
t-67.5 21.5q-36 0 -66 -17.5t-34 -61.5l-126 7q5 51 27.5 87.5t57 55t69.5 27t74 8.5q98 0 161.5 -45t63.5 -134q0 -49 -21 -86h54v-51h-99z" />
    <glyph glyph-name="uni20BD" unicode="&#x20bd;" horiz-adv-x="640" 
d="M369 272h-142v-59h208v-78h-208v-135h-135v135h-68v78h68v59h-68v99h68v317h135h138q103 0 171.5 -52.5t68.5 -161.5q0 -108 -65 -155t-171 -47zM227 578v-207h122q121 0 121 103q0 52 -32 78t-89 26h-122z" />
    <glyph glyph-name="uni2116" unicode="&#x2116;" horiz-adv-x="1219" 
d="M974 334q-89 0 -142 51t-53 138t53 138t142 51q90 0 143 -51t53 -138t-53 -138t-143 -51zM546 89v611h133v-700h-234l-233 611v-611h-134v700h235zM974 624q-39 0 -61 -28t-22 -73t22 -73t61 -28q40 0 61.5 28t21.5 73t-21.5 73t-61.5 28zM794 190v88h360v-88h-360z" />
    <glyph glyph-name="trademark" unicode="&#x2122;" horiz-adv-x="832" 
d="M16 643v57h300v-57h-115v-312h-70v312h-115zM662 700h121v-369h-68v323l-90 -323h-96l-89 320v-320h-69v369h122l85 -326z" />
    <glyph glyph-name="oneeighth" unicode="&#x215b;" horiz-adv-x="825" 
d="M108 340v259l-82 -47v90l100 58h70v-360h-88zM546 700h95l-486 -700h-97zM699 185q95 -21 95 -93q0 -50 -48 -77t-117 -27q-68 0 -116 27t-48 77q0 72 95 93q-84 21 -84 84q0 47 44 72t109 25q66 0 110 -24.5t44 -72.5q0 -63 -84 -84zM629 299q-68 0 -68 -43
q0 -20 18.5 -31t49.5 -11t50 11t19 31q0 43 -69 43zM629 55q36 0 58 13t22 36t-22 36t-58 13q-35 0 -57 -13t-22 -36t21.5 -36t57.5 -13z" />
    <glyph glyph-name="threeeighths" unicode="&#x215c;" horiz-adv-x="921" 
d="M337 451q0 -63 -46.5 -93t-118.5 -30q-68 0 -111 29t-50 88l87 5q8 -51 74 -51q36 0 56.5 13.5t20.5 38.5q0 23 -19 37t-56 14q-23 0 -65 -7v59l102 75h-178v71h292v-64l-117 -75q57 -4 89 -27q40 -27 40 -83zM642 700h96l-487 -700h-96zM796 185q95 -21 95 -93
q0 -50 -48.5 -77t-116.5 -27t-116.5 27t-48.5 77q0 72 95 93q-84 21 -84 84q0 48 44 72.5t110 24.5q65 0 109.5 -25t44.5 -72q0 -63 -84 -84zM726 299q-69 0 -69 -43q0 -20 19 -31t50 -11t50 11t19 31q0 43 -69 43zM726 55q36 0 57.5 13t21.5 36t-22 36t-57 13t-57 -13
t-22 -36t21.5 -36t57.5 -13z" />
    <glyph glyph-name="fiveeighths" unicode="&#x215d;" horiz-adv-x="930" 
d="M346 460q0 -64 -44.5 -97.5t-117.5 -33.5q-65 0 -109.5 28t-53.5 81l84 6q14 -47 79 -47q36 0 56 16t20 44q0 30 -21 45.5t-56 15.5q-51 0 -74 -29l-77 6l17 206h273v-68h-209l-8 -88q37 34 105 34q62 0 99 -30.5t37 -88.5zM651 700h96l-487 -700h-96zM805 185
q43 -10 69 -33.5t26 -59.5q0 -50 -48.5 -77t-116.5 -27t-116.5 27t-48.5 77q0 72 95 93q-84 21 -84 84q0 48 44 72.5t110 24.5q65 0 109.5 -25t44.5 -72q0 -63 -84 -84zM735 299q-69 0 -69 -43q0 -20 19 -31t50 -11t49.5 11t18.5 31q0 43 -68 43zM735 55q36 0 57.5 13
t21.5 36t-22 36t-57 13t-57 -13t-22 -36t21.5 -36t57.5 -13z" />
    <glyph glyph-name="seveneighths" unicode="&#x215e;" horiz-adv-x="877" 
d="M172 340h-93q33 150 148 289h-210v71h302v-60q-116 -146 -147 -300zM598 700h96l-487 -700h-97zM752 185q94 -21 94 -93q0 -50 -48 -77t-116 -27q-69 0 -117 27t-48 77q0 72 95 93q-84 21 -84 84q0 48 44 72.5t110 24.5q65 0 109 -25t44 -72q0 -63 -83 -84zM682 299
q-69 0 -69 -43q0 -20 19 -31t50 -11t49.5 11t18.5 31q0 43 -68 43zM682 55q36 0 57.5 13t21.5 36t-22 36t-57 13q-36 0 -58 -13t-22 -36t22 -36t58 -13z" />
    <glyph glyph-name="arrowleft" unicode="&#x2190;" horiz-adv-x="785" 
d="M730 406v-100h-483l231 -225h-149l-275 275l275 275h149l-231 -225h483z" />
    <glyph glyph-name="arrowup" unicode="&#x2191;" horiz-adv-x="659" 
d="M605 486v-153l-222 228v-569h-106v569l-223 -228l1 153l275 274z" />
    <glyph glyph-name="arrowright" unicode="&#x2192;" horiz-adv-x="785" 
d="M456 631l274 -275l-274 -275h-149l231 225h-484v100h484l-231 225h149z" />
    <glyph glyph-name="arrowdown" unicode="&#x2193;" horiz-adv-x="659" 
d="M383 139l222 228v-153l-275 -274l-275 274l-1 153l223 -228v569h106v-569z" />
    <glyph glyph-name="arrowboth" unicode="&#x2194;" horiz-adv-x="1069" 
d="M773 598l241 -242l-241 -242h-149l198 192h-575l197 -192h-148l-242 242l242 242h148l-197 -192h575l-198 192h149z" />
    <glyph glyph-name="arrowupdn" unicode="&#x2195;" horiz-adv-x="589" 
d="M535 426l-189 195v-544l189 195v-151l-242 -242l-239 237v152l185 -190v542l-185 -190v152l239 237l242 -241v-152z" />
    <glyph glyph-name="uni2196" unicode="&#x2196;" horiz-adv-x="649" 
d="M595 148l-72 -72l-361 361l4 -323l-112 106v389h390l105 -103l-316 4z" />
    <glyph glyph-name="uni2197" unicode="&#x2197;" horiz-adv-x="649" 
d="M206 609h389v-389l-112 -106l4 323l-361 -361l-72 72l362 362l-316 -4z" />
    <glyph glyph-name="uni2198" unicode="&#x2198;" horiz-adv-x="649" 
d="M483 587l112 -106v-389h-389l-106 103l316 -4l-362 362l72 72l361 -361z" />
    <glyph glyph-name="uni2199" unicode="&#x2199;" horiz-adv-x="649" 
d="M595 553l-362 -362l316 4l-105 -103h-390v389l112 106l-4 -323l361 361z" />
    <glyph glyph-name="partialdiff" unicode="&#x2202;" horiz-adv-x="591" 
d="M264 756q280 0 280 -395q0 -195 -71 -284t-193 -89q-113 0 -178.5 66t-65.5 182q0 110 64 178.5t165 68.5q87 0 144 -57q-18 229 -154 229q-74 0 -132 -65l-68 84q84 82 209 82zM274 92q58 0 93.5 50t42.5 151q-17 42 -48.5 64t-69.5 22q-57 0 -90 -40t-33 -103
q0 -70 29 -107t76 -37z" />
    <glyph glyph-name="emptyset" unicode="&#x2205;" horiz-adv-x="585" 
d="M553 524l-68 -69q47 -63 47 -151q0 -109 -67 -172.5t-173 -63.5q-90 0 -150 45l-69 -70l-41 41l69 69q-48 62 -48 151q0 110 66.5 173t172.5 63q91 0 151 -45l69 70zM165 304q0 -39 16 -71l184 184q-32 19 -73 19q-59 0 -93 -35.5t-34 -96.5zM420 304q0 40 -16 70
l-184 -183q32 -19 72 -19q59 0 93.5 35.5t34.5 96.5z" />
    <glyph glyph-name="product" unicode="&#x220f;" horiz-adv-x="661" 
d="M583 700v-798h-130v692h-245v-692h-130v798h505z" />
    <glyph glyph-name="summation" unicode="&#x2211;" horiz-adv-x="527" 
d="M187 7h317v-105h-470v94l222 319l-209 291v94h447v-106h-292l200 -279z" />
    <glyph glyph-name="minus" unicode="&#x2212;" horiz-adv-x="500" 
d="M52 377h397v-95h-397v95z" />
    <glyph glyph-name="radical" unicode="&#x221a;" horiz-adv-x="606" 
d="M470 712h109l-224 -816h-147l-113 396h-74v96h157l104 -397z" />
    <glyph glyph-name="infinity" unicode="&#x221e;" horiz-adv-x="628" 
d="M458 478q67 0 107 -39.5t40 -114.5t-40 -115.5t-107 -40.5q-43 0 -77 19.5t-67 67.5q-33 -49 -66.5 -68t-77.5 -19q-67 0 -107 40.5t-40 115.5t40 114.5t107 39.5q44 0 77.5 -19t66.5 -67q33 48 66.5 67t77.5 19zM178 246q52 0 97 77q-46 79 -97 79q-28 0 -47.5 -19.5
t-19.5 -58.5t19.5 -58.5t47.5 -19.5zM450 246q28 0 47.5 19.5t19.5 58.5t-19.5 58.5t-47.5 19.5q-52 0 -96 -79q44 -77 96 -77z" />
    <glyph glyph-name="integral" unicode="&#x222b;" horiz-adv-x="414" 
d="M288 735q30 0 62 -6v-89q-12 3 -38 3q-27 0 -39 -15t-12 -53v-532q0 -147 -141 -147q-37 0 -62 5v89q24 -3 38 -3q27 0 39 15t12 54v532q0 147 141 147z" />
    <glyph glyph-name="approxequal" unicode="&#x2248;" horiz-adv-x="545" 
d="M185 407q-24 0 -37 -18.5t-13 -48.5h-71q0 63 26 104t86 41q39 0 73.5 -20.5t61.5 -41t49 -20.5q24 0 36.5 19t12.5 49h72q0 -63 -26.5 -104.5t-86.5 -41.5q-31 0 -59.5 13t-46 28t-38.5 28t-39 13zM360 229q24 0 36.5 18.5t12.5 48.5h72q0 -63 -26.5 -104t-86.5 -41
q-39 0 -73.5 20.5t-61.5 40.5t-48 20q-24 0 -37 -18.5t-13 -48.5h-71q0 63 26 104t86 41q31 0 59.5 -12.5t46.5 -28t39 -28t39 -12.5z" />
    <glyph glyph-name="notequal" unicode="&#x2260;" horiz-adv-x="516" 
d="M457 366h-143l-36 -85h179v-90h-218l-37 -86h-78l37 86h-101v90h140l36 85h-176v89h214l37 87h79l-37 -87h104v-89z" />
    <glyph glyph-name="lessequal" unicode="&#x2264;" horiz-adv-x="496" 
d="M429 578v-108l-267 -94l267 -72v-108l-375 120v113zM54 64v89h375v-89h-375z" />
    <glyph glyph-name="greaterequal" unicode="&#x2265;" horiz-adv-x="496" 
d="M67 578l375 -149v-113l-375 -120v108l267 72l-267 94v108zM67 64v89h375v-89h-375z" />
    <glyph glyph-name="uni2460" unicode="&#x2460;" 
d="M401 -12q-158 0 -259 99.5t-101 262.5t101 262.5t259 99.5t259 -99.5t101 -262.5t-101 -262.5t-259 -99.5zM401 42q134 0 218.5 84.5t84.5 223.5t-84.5 223.5t-218.5 84.5t-218 -84.5t-84 -223.5t84 -223.5t218 -84.5zM300 398v81l86 49h67v-356h-83v267z" />
    <glyph glyph-name="uni2461" unicode="&#x2461;" 
d="M401 -12q-158 0 -259 99.5t-101 262.5t101 262.5t259 99.5t259 -99.5t101 -262.5t-101 -262.5t-259 -99.5zM401 42q134 0 218.5 84.5t84.5 223.5t-84.5 223.5t-218.5 84.5t-218 -84.5t-84 -223.5t84 -223.5t218 -84.5zM265 173v61l112 96q40 32 58 53t18 44q0 19 -12 30
t-32 11q-49 0 -55 -68l-80 6q5 65 42 97t93 32q54 0 90 -27.5t36 -80.5q0 -31 -17.5 -59t-60.5 -63l-76 -65h164v-67h-280z" />
    <glyph glyph-name="uni2462" unicode="&#x2462;" 
d="M401 -12q-158 0 -259 99.5t-101 262.5t101 262.5t259 99.5t259 -99.5t101 -262.5t-101 -262.5t-259 -99.5zM401 42q134 0 218.5 84.5t84.5 223.5t-84.5 223.5t-218.5 84.5t-218 -84.5t-84 -223.5t84 -223.5t218 -84.5zM255 279l80 5q9 -51 64 -51q31 0 49 13.5t18 38.5
q0 52 -65 52q-19 0 -57 -7v56l87 75h-156v67h262v-60l-99 -77q109 -10 109 -106q0 -60 -42 -89.5t-106 -29.5q-60 0 -98.5 28.5t-45.5 84.5z" />
    <glyph glyph-name="uni2463" unicode="&#x2463;" 
d="M401 -12q-158 0 -259 99.5t-101 262.5t101 262.5t259 99.5t259 -99.5t101 -262.5t-101 -262.5t-259 -99.5zM401 42q134 0 218.5 84.5t84.5 223.5t-84.5 223.5t-218.5 84.5t-218 -84.5t-84 -223.5t84 -223.5t218 -84.5zM230 247v61l140 220h134v-214h60v-67h-60v-75h-82
v75h-192zM310 314h112v172z" />
    <glyph glyph-name="uni2464" unicode="&#x2464;" 
d="M401 -12q-158 0 -259 99.5t-101 262.5t101 262.5t259 99.5t259 -99.5t101 -262.5t-101 -262.5t-259 -99.5zM401 42q134 0 218.5 84.5t84.5 223.5t-84.5 223.5t-218.5 84.5t-218 -84.5t-84 -223.5t84 -223.5t218 -84.5zM255 272l80 5q10 -44 68 -44q30 0 47.5 16t17.5 43
q0 28 -18.5 44t-47.5 16q-43 0 -64 -30l-73 6l15 200h248v-67h-186l-7 -85q35 32 93 32q55 0 88.5 -30t33.5 -86q0 -61 -41 -93.5t-106 -32.5q-58 0 -99 27t-49 79z" />
    <glyph glyph-name="uni2465" unicode="&#x2465;" 
d="M401 -12q-158 0 -259 99.5t-101 262.5t101 262.5t259 99.5t259 -99.5t101 -262.5t-101 -262.5t-259 -99.5zM401 42q134 0 218.5 84.5t84.5 223.5t-84.5 223.5t-218.5 84.5t-218 -84.5t-84 -223.5t84 -223.5t218 -84.5zM249 347q0 94 42.5 141t115.5 47q57 0 92.5 -26.5
t41.5 -76.5l-80 -5q-2 19 -16.5 30.5t-37.5 11.5q-71 0 -76 -109q31 40 96 40q57 0 92 -28.5t35 -83.5q0 -57 -40 -89.5t-108 -32.5q-75 0 -116 45t-41 136zM340 288q0 -25 18 -40.5t47 -15.5q30 0 48 15.5t18 40.5t-18 40.5t-48 15.5q-29 0 -47 -15.5t-18 -40.5z" />
    <glyph glyph-name="uni2466" unicode="&#x2466;" 
d="M401 -12q-158 0 -259 99.5t-101 262.5t101 262.5t259 99.5t259 -99.5t101 -262.5t-101 -262.5t-259 -99.5zM401 42q134 0 218.5 84.5t84.5 223.5t-84.5 223.5t-218.5 84.5t-218 -84.5t-84 -223.5t84 -223.5t218 -84.5zM266 461v67h278v-56q-106 -149 -135 -300h-87
q29 145 140 289h-196z" />
    <glyph glyph-name="uni2467" unicode="&#x2467;" 
d="M401 -12q-158 0 -259 99.5t-101 262.5t101 262.5t259 99.5t259 -99.5t101 -262.5t-101 -262.5t-259 -99.5zM402 42q135 0 219 84.5t84 223.5t-84 223.5t-219 84.5q-134 0 -218 -84.5t-84 -223.5t84 -223.5t218 -84.5zM247 267q0 70 88 92q-77 19 -77 82q0 46 41.5 70
t101.5 24q61 0 102.5 -24.5t41.5 -69.5q0 -63 -78 -82q88 -22 88 -92q0 -49 -45 -75t-109 -26t-109 26t-45 75zM337 429q0 -19 17 -30t47 -11t47 11t17 30q0 20 -17 31t-47 11t-47 -11t-17 -31zM327 278q0 -23 21 -35.5t53 -12.5t53 12.5t21 35.5q0 22 -21 34t-53 12
t-53 -12t-21 -34z" />
    <glyph glyph-name="uni2468" unicode="&#x2468;" 
d="M401 -12q-158 0 -259 99.5t-101 262.5t101 262.5t259 99.5t259 -99.5t101 -262.5t-101 -262.5t-259 -99.5zM403 42q134 0 218.5 84.5t84.5 223.5t-84.5 223.5t-218.5 84.5t-218 -84.5t-84 -223.5t84 -223.5t218 -84.5zM249 414q0 56 40 88.5t106 32.5q76 0 117.5 -45
t41.5 -136q0 -94 -42.5 -141t-115.5 -47q-57 0 -92.5 26.5t-41.5 75.5l79 5q9 -41 55 -41q72 0 75 112q-28 -41 -96 -41q-56 0 -91 28.5t-35 82.5zM331 414q0 -25 18.5 -39.5t47.5 -14.5q30 0 48 14.5t18 39.5q0 24 -18 39.5t-48 15.5q-29 0 -47.5 -15.5t-18.5 -39.5z" />
    <glyph glyph-name="uni24EA" unicode="&#x24ea;" 
d="M401 -12q-158 0 -259 99.5t-101 262.5t101 262.5t259 99.5t259 -99.5t101 -262.5t-101 -262.5t-259 -99.5zM401 42q134 0 218.5 84.5t84.5 223.5t-84.5 223.5t-218.5 84.5t-218 -84.5t-84 -223.5t84 -223.5t218 -84.5zM245 350q0 86 41 135.5t115 49.5q75 0 115.5 -49
t40.5 -136q0 -86 -40.5 -135t-115.5 -49q-74 0 -115 49t-41 135zM328 350q0 -58 19.5 -87.5t53.5 -29.5t54 29.5t20 87.5t-20 88t-54 30t-53.5 -30t-19.5 -88z" />
    <glyph glyph-name="uni24FF" unicode="&#x24ff;" 
d="M401 -12q-158 0 -259 99.5t-101 262.5t101 262.5t259 99.5t259 -99.5t101 -262.5t-101 -262.5t-259 -99.5zM245 350q0 -86 41 -135t115 -49q75 0 115.5 49t40.5 135q0 87 -40.5 136t-115.5 49q-74 0 -115 -49.5t-41 -135.5zM328 350q0 58 19.5 88t53.5 30t54 -30t20 -88
t-20 -87.5t-54 -29.5t-53.5 29.5t-19.5 87.5z" />
    <glyph glyph-name="lozenge" unicode="&#x25ca;" horiz-adv-x="519" 
d="M326 700l162 -350l-162 -350h-132l-162 350l162 350h132zM260 75l120 275l-120 275l-121 -275z" />
    <glyph glyph-name="uni2776" unicode="&#x2776;" 
d="M401 -12q-158 0 -259 99.5t-101 262.5t101 262.5t259 99.5t259 -99.5t101 -262.5t-101 -262.5t-259 -99.5zM300 398l70 41v-267h83v356h-67l-86 -49v-81z" />
    <glyph glyph-name="uni2777" unicode="&#x2777;" 
d="M401 -12q-158 0 -259 99.5t-101 262.5t101 262.5t259 99.5t259 -99.5t101 -262.5t-101 -262.5t-259 -99.5zM265 173h280v67h-164l76 65q43 35 60.5 63t17.5 59q0 53 -36 80.5t-90 27.5q-56 0 -93 -32t-42 -97l80 -6q6 68 55 68q20 0 32 -11t12 -30q0 -23 -18 -44t-58 -53
l-112 -96v-61z" />
    <glyph glyph-name="uni2778" unicode="&#x2778;" 
d="M401 -12q-158 0 -259 99.5t-101 262.5t101 262.5t259 99.5t259 -99.5t101 -262.5t-101 -262.5t-259 -99.5zM255 279q7 -56 45.5 -84.5t98.5 -28.5q64 0 106 29.5t42 89.5q0 96 -109 106l99 77v60h-262v-67h156l-87 -75v-56q38 7 57 7q65 0 65 -52q0 -25 -18 -38.5
t-49 -13.5q-55 0 -64 51z" />
    <glyph glyph-name="uni2779" unicode="&#x2779;" 
d="M401 -12q-158 0 -259 99.5t-101 262.5t101 262.5t259 99.5t259 -99.5t101 -262.5t-101 -262.5t-259 -99.5zM230 247h192v-75h82v75h60v67h-60v214h-134l-140 -220v-61zM310 314l112 172v-172h-112z" />
    <glyph glyph-name="uni277A" unicode="&#x277a;" 
d="M401 -12q-158 0 -259 99.5t-101 262.5t101 262.5t259 99.5t259 -99.5t101 -262.5t-101 -262.5t-259 -99.5zM255 272q8 -52 49 -79t99 -27q65 0 106 32.5t41 93.5q0 56 -33.5 86t-88.5 30q-58 0 -93 -32l7 85h186v67h-248l-15 -200l73 -6q21 30 64 30q29 0 47.5 -16
t18.5 -44q0 -27 -17.5 -43t-47.5 -16q-58 0 -68 44z" />
    <glyph glyph-name="uni277B" unicode="&#x277b;" 
d="M401 -12q-158 0 -259 99.5t-101 262.5t101 262.5t259 99.5t259 -99.5t101 -262.5t-101 -262.5t-259 -99.5zM249 347q0 -91 41 -136t116 -45q68 0 108 32.5t40 89.5q0 55 -35 83.5t-92 28.5q-65 0 -96 -40q5 109 76 109q23 0 37.5 -11.5t16.5 -30.5l80 5q-6 50 -41.5 76.5
t-92.5 26.5q-73 0 -115.5 -47t-42.5 -141zM340 288q0 25 18 40.5t47 15.5q30 0 48 -15.5t18 -40.5t-18 -40.5t-48 -15.5q-29 0 -47 15.5t-18 40.5z" />
    <glyph glyph-name="uni277C" unicode="&#x277c;" 
d="M401 -12q-158 0 -259 99.5t-101 262.5t101 262.5t259 99.5t259 -99.5t101 -262.5t-101 -262.5t-259 -99.5zM266 461h196q-111 -144 -140 -289h87q29 151 135 300v56h-278v-67z" />
    <glyph glyph-name="uni277D" unicode="&#x277d;" 
d="M401 -12q-158 0 -259 99.5t-101 262.5t101 262.5t259 99.5t259 -99.5t101 -262.5t-101 -262.5t-259 -99.5zM247 267q0 -49 45 -75t109 -26t109 26t45 75q0 70 -88 92q78 19 78 82q0 45 -41.5 69.5t-102.5 24.5q-60 0 -101.5 -24t-41.5 -70q0 -63 77 -82q-88 -22 -88 -92z
M337 429q0 20 17 31t47 11t47 -11t17 -31q0 -19 -17 -30t-47 -11t-47 11t-17 30zM327 278q0 22 21 34t53 12t53 -12t21 -34q0 -23 -21 -35.5t-53 -12.5t-53 12.5t-21 35.5z" />
    <glyph glyph-name="uni277E" unicode="&#x277e;" 
d="M401 -12q-158 0 -259 99.5t-101 262.5t101 262.5t259 99.5t259 -99.5t101 -262.5t-101 -262.5t-259 -99.5zM249 414q0 -54 35 -82.5t91 -28.5q68 0 96 41q-3 -112 -75 -112q-46 0 -55 41l-79 -5q6 -49 41.5 -75.5t92.5 -26.5q73 0 115.5 47t42.5 141q0 91 -41.5 136
t-117.5 45q-66 0 -106 -32.5t-40 -88.5zM331 414q0 24 18.5 39.5t47.5 15.5q30 0 48 -15.5t18 -39.5q0 -25 -18 -39.5t-48 -14.5q-29 0 -47.5 14.5t-18.5 39.5z" />
    <glyph glyph-name="i.loclTRK" horiz-adv-x="261" 
d="M60 598v129h141v-129h-141zM63 0v524h134v-524h-134z" />
    <glyph glyph-name="zero.osf" horiz-adv-x="639" 
d="M42 283q0 137 74 215t204 78q129 0 203 -78.5t74 -214.5t-74 -214.5t-203 -78.5q-130 0 -204 78t-74 215zM175 283q0 -90 39 -137t106 -47q66 0 105 47t39 137t-39 137t-105 47q-67 0 -106 -47t-39 -137z" />
    <glyph glyph-name="one.osf" horiz-adv-x="515" 
d="M349 109h146v-109h-452v109h173v316l-148 -79v129l174 91h107v-457z" />
    <glyph glyph-name="two.osf" horiz-adv-x="555" 
d="M212 109h321v-109h-516v99l237 160q81 59 103 86q25 31 25 58q0 31 -26 47.5t-73 16.5q-107 0 -120 -106l-128 10q9 103 76.5 154t171.5 51q101 0 166.5 -43.5t65.5 -126.5q0 -51 -34 -96.5t-117 -97.5z" />
    <glyph glyph-name="three.osf" horiz-adv-x="585" 
d="M490 246q62 -52 62 -151q0 -112 -76.5 -169t-193.5 -57q-111 0 -181.5 54t-81.5 159l131 9q16 -112 132 -112q62 0 98.5 30t36.5 86q0 52 -33 82.5t-99 30.5q-42 0 -106 -12v93l179 167h-303v110h477v-98l-199 -170q104 -7 157 -52z" />
    <glyph glyph-name="four.osf" horiz-adv-x="629" 
d="M498 121h106v-110h-106v-132h-136v132h-342v101l258 454h220v-445zM152 121h210v373z" />
    <glyph glyph-name="five.osf" horiz-adv-x="592" 
d="M332 342q101 0 163.5 -61.5t62.5 -171.5q0 -115 -74 -177.5t-192 -62.5q-106 0 -180.5 51t-88.5 147l131 9q11 -48 49 -72.5t89 -24.5q58 0 94.5 34.5t36.5 95.5q0 64 -37.5 97.5t-96.5 33.5q-86 0 -128 -64l-120 10l29 380h448v-110h-347l-14 -182q66 68 175 68z" />
    <glyph glyph-name="six.osf" horiz-adv-x="629" 
d="M362 459q101 0 166.5 -62t65.5 -171q0 -111 -72 -174.5t-193 -63.5q-283 0 -283 352q0 185 74 278.5t210 93.5q102 0 165.5 -52t73.5 -146l-130 -9q-5 44 -34 71t-75 27q-83 0 -121 -89q-24 -57 -27 -145q56 90 180 90zM328 97q59 0 94.5 35.5t35.5 93.5q0 59 -35.5 94
t-94.5 35t-94.5 -35t-35.5 -94t35.5 -94t94.5 -35z" />
    <glyph glyph-name="seven.osf" horiz-adv-x="568" 
d="M28 566h515v-92q-207 -295 -265 -595h-138q62 296 271 577h-383v110z" />
    <glyph glyph-name="eight.osf" horiz-adv-x="623" 
d="M424 366q75 -20 119 -65.5t44 -114.5q0 -95 -80 -146.5t-195 -51.5q-116 0 -196 51.5t-80 146.5q0 69 44.5 114.5t120.5 65.5q-146 37 -146 163q0 88 74 135.5t183 47.5t182.5 -47.5t73.5 -135.5q0 -125 -144 -163zM312 606q-58 0 -92 -25.5t-34 -70.5t34 -70.5t92 -25.5
q57 0 91 25.5t34 70.5t-33.5 70.5t-91.5 25.5zM312 94q63 0 103.5 28.5t40.5 79.5t-40.5 79.5t-103.5 28.5t-103.5 -28.5t-40.5 -79.5t40.5 -79.5t103.5 -28.5z" />
    <glyph glyph-name="nine.osf" horiz-adv-x="629" 
d="M298 576q142 0 213 -84.5t71 -259.5q0 -182 -73.5 -272t-209.5 -90q-102 0 -165.5 50t-73.5 142l130 10q6 -42 34.5 -67.5t74.5 -25.5q85 0 122 87q23 53 26 142q-57 -86 -181 -86q-101 0 -166 60.5t-65 164.5q0 106 72.5 167.5t190.5 61.5zM301 226q59 0 94 33t35 88
q0 54 -35 87t-94 33t-94.5 -33t-35.5 -87q0 -55 35.5 -88t94.5 -33z" />
    <glyph glyph-name="zero.subs" horiz-adv-x="469" 
d="M42 99q0 105 50 165t143 60t142.5 -59.5t49.5 -165.5t-49.5 -165.5t-142.5 -59.5t-143 59.5t-50 165.5zM146 99q0 -70 24 -105.5t65 -35.5t64.5 35.5t23.5 105.5t-23.5 105t-64.5 35t-65 -35t-24 -105z" />
    <glyph glyph-name="one.subs" horiz-adv-x="306" 
d="M137 315h85v-431h-104v315l-83 -63v103z" />
    <glyph glyph-name="two.subs" horiz-adv-x="385" 
d="M159 -34h203v-85h-346v77l137 116q33 28 48.5 42t30 35t14.5 40q0 22 -14 35t-38 13q-58 0 -65 -81l-101 8q6 80 51 119t115 39q66 0 111 -34t45 -99q0 -38 -21 -71t-77 -77z" />
    <glyph glyph-name="three.subs" horiz-adv-x="402" 
d="M315 127q57 -32 57 -106q0 -73 -52 -108.5t-131 -35.5q-75 0 -123 34.5t-56 102.5l101 7q10 -60 78 -60q37 0 58 15.5t21 44.5q0 28 -19.5 44t-58.5 16q-31 0 -70 -8v70l104 88h-189v84h323v-75l-124 -90q52 -5 81 -23z" />
    <glyph glyph-name="four.subs" horiz-adv-x="452" 
d="M357 58h74v-84h-74v-90h-104v90h-235v78l170 263h169v-257zM119 58h134v206z" />
    <glyph glyph-name="five.subs" horiz-adv-x="424" 
d="M241 164q69 0 109.5 -33t40.5 -101q0 -74 -50 -113.5t-131 -39.5q-72 0 -123 33t-60 95l101 7q14 -51 82 -51q35 0 56 18.5t21 50.5q0 33 -22 50.5t-58 17.5q-51 0 -75 -34l-93 9l19 242h306v-84h-228l-8 -102q39 35 113 35z" />
    <glyph glyph-name="six.subs" horiz-adv-x="454" 
d="M267 158q65 0 108 -34t43 -101q0 -70 -49 -109.5t-133 -39.5q-194 0 -194 220q0 116 51 173t145 57q70 0 113.5 -32t50.5 -93l-100 -6q-4 21 -20.5 34t-43.5 13q-52 0 -75 -47q-15 -31 -16 -83q41 48 120 48zM236 -42q36 0 57.5 17.5t21.5 47.5q0 31 -21.5 48.5
t-57.5 17.5t-57 -17.5t-21 -48.5q0 -30 21.5 -47.5t56.5 -17.5z" />
    <glyph glyph-name="seven.subs" horiz-adv-x="375" 
d="M18 315h343v-70q-131 -178 -164 -361h-111q37 177 173 347h-241v84z" />
    <glyph glyph-name="eight.subs" horiz-adv-x="448" 
d="M306 110q107 -28 107 -112q0 -61 -55 -92.5t-134 -31.5t-134.5 31.5t-55.5 92.5q0 43 29.5 71t79.5 40q-96 26 -96 101q0 55 51 84.5t126 29.5q74 0 125 -29.5t51 -84.5q0 -76 -94 -100zM224 247q-36 0 -56 -13.5t-20 -38.5t20 -38.5t56 -13.5q35 0 55.5 13.5t20.5 38.5
t-20.5 38.5t-55.5 13.5zM224 -49q41 0 64.5 15.5t23.5 43.5t-23.5 43.5t-64.5 15.5t-65 -15.5t-24 -43.5t24 -43.5t65 -15.5z" />
    <glyph glyph-name="nine.subs" horiz-adv-x="454" 
d="M218 324q194 0 194 -220q0 -230 -195 -230q-70 0 -114 31.5t-51 93.5l100 6q4 -21 21 -34t44 -13q54 0 76 52q14 29 14 80q-39 -49 -120 -49q-65 0 -108 34t-43 100q0 70 49 109.5t133 39.5zM218 110q35 0 56.5 17.5t21.5 47.5t-21.5 47.5t-56.5 17.5q-36 0 -57 -17.5
t-21 -47.5t21 -47.5t57 -17.5z" />
    <glyph glyph-name="zero.tf" horiz-adv-x="630" 
d="M54 350q0 170 67.5 266t193.5 96t193.5 -96t67.5 -266t-67.5 -266t-193.5 -96t-193.5 96t-67.5 266zM183 350q0 -123 35.5 -189.5t96.5 -66.5t96.5 66.5t35.5 189.5t-35.5 189.5t-96.5 66.5t-96.5 -66.5t-35.5 -189.5z" />
    <glyph glyph-name="one.tf" horiz-adv-x="630" 
d="M412 110h168v-110h-504v110h201v440l-177 -114v132l203 132h109v-590z" />
    <glyph glyph-name="two.tf" horiz-adv-x="630" 
d="M237 106h320v-106h-496v97l211 211q41 40 56.5 56t40 45.5t33 53.5t8.5 50q0 44 -25.5 68.5t-67.5 24.5q-103 0 -114 -151l-126 9q9 125 74.5 186.5t165.5 61.5q97 0 159.5 -51t62.5 -148q0 -63 -31.5 -117.5t-111.5 -132.5z" />
    <glyph glyph-name="three.tf" horiz-adv-x="630" 
d="M488 383q72 -53 72 -165q0 -113 -74.5 -171.5t-187.5 -58.5q-107 0 -175.5 54.5t-79.5 162.5l131 9q14 -116 124 -116q58 0 92.5 31.5t34.5 88.5q0 54 -31 86t-93 32q-41 0 -103 -13v93l167 174h-287v110h462v-98l-188 -175q85 -6 136 -44z" />
    <glyph glyph-name="four.tf" horiz-adv-x="630" 
d="M495 260h102v-105h-102v-155h-130v155h-330v97l243 448h217v-440zM161 260h204v373z" />
    <glyph glyph-name="five.tf" horiz-adv-x="630" 
d="M357 470q97 0 157.5 -63t60.5 -174q0 -117 -72 -181t-186 -64q-103 0 -175 52.5t-86 149.5l132 9q9 -50 45.5 -75.5t83.5 -25.5q55 0 89 35.5t34 99.5q0 66 -35 100.5t-91 34.5q-80 0 -121 -66l-120 10l29 388h434v-110h-333l-13 -187q64 67 167 67z" />
    <glyph glyph-name="six.tf" horiz-adv-x="630" 
d="M364 459q97 0 160 -62.5t63 -170.5q0 -111 -69 -174.5t-186 -63.5q-271 0 -271 351q0 186 71 279.5t201 93.5q98 0 159 -52t71 -145l-125 -9q-5 45 -32.5 73t-72.5 28q-75 0 -112 -81q-27 -58 -30 -157q55 90 173 90zM331 93q56 0 90.5 36t34.5 97q0 60 -34 96t-91 36
t-90.5 -35.5t-33.5 -96.5t33.5 -97t90.5 -36z" />
    <glyph glyph-name="seven.tf" horiz-adv-x="630" 
d="M64 700h499v-93q-195 -296 -251 -607h-144q57 294 262 590h-366v110z" />
    <glyph glyph-name="eight.tf" horiz-adv-x="630" 
d="M420 366q73 -20 116 -66t43 -115q0 -94 -76.5 -145.5t-187.5 -51.5t-187.5 51.5t-76.5 145.5q0 69 42.5 115t115.5 66q-141 37 -141 163q0 88 71 135.5t176 47.5q104 0 175 -47.5t71 -135.5q0 -63 -37 -104.5t-104 -58.5zM315 610q-56 0 -88.5 -25.5t-32.5 -72.5
t32.5 -73.5t88.5 -26.5t88.5 26.5t32.5 73.5t-32.5 72.5t-88.5 25.5zM315 90q60 0 99 29t39 82q0 52 -39 81.5t-99 29.5t-99 -29.5t-39 -81.5q0 -53 39 -82t99 -29z" />
    <glyph glyph-name="nine.tf" horiz-adv-x="630" 
d="M296 712q273 0 273 -351q0 -186 -70.5 -279.5t-201.5 -93.5q-98 0 -159 51.5t-71 145.5l125 9q6 -46 33 -73.5t72 -27.5q78 0 114 85q27 61 28 159q-27 -44 -72.5 -67t-100.5 -23q-97 0 -160 62t-63 168q0 109 69.5 172t183.5 63zM299 348q56 0 90 35t34 94t-34 94.5
t-90 35.5q-57 0 -91 -35.5t-34 -94.5t34 -94t91 -35z" />
    <glyph glyph-name="zero.tosf" horiz-adv-x="630" 
d="M53 283q0 137 70 215t192 78t192 -78t70 -215t-70 -215t-192 -78t-192 78t-70 215zM181 283q0 -91 36 -139.5t98 -48.5t98 48.5t36 139.5t-36 139.5t-98 48.5t-98 -48.5t-36 -139.5z" />
    <glyph glyph-name="one.tosf" horiz-adv-x="630" 
d="M412 109h162v-109h-486v109h192v318l-164 -81v129l189 91h107v-457z" />
    <glyph glyph-name="two.tosf" horiz-adv-x="630" 
d="M259 109h293v-109h-486v99l217 161q75 59 96 86q23 30 23 57q0 31 -22.5 47.5t-63.5 16.5q-92 0 -105 -106l-128 10q9 103 72 154t161 51q94 0 156.5 -43.5t62.5 -126.5q0 -51 -31 -95.5t-108 -100.5z" />
    <glyph glyph-name="three.tosf" horiz-adv-x="630" 
d="M483 255q72 -53 72 -162q0 -111 -75 -167.5t-190 -56.5q-109 0 -179 53.5t-80 158.5l131 9q14 -111 128 -111q60 0 95 29.5t35 84.5q0 53 -32 83.5t-96 30.5q-39 0 -103 -12v93l170 168h-293v110h470v-98l-190 -170q85 -6 137 -43z" />
    <glyph glyph-name="four.tosf" horiz-adv-x="630" 
d="M493 126h103v-109h-103v-138h-135v138h-329v101l244 448h220v-440zM159 126h199v359z" />
    <glyph glyph-name="five.tosf" horiz-adv-x="630" 
d="M357 339q96 0 156 -61.5t60 -169.5q0 -114 -71.5 -176.5t-184.5 -62.5q-101 0 -172.5 51t-84.5 146l131 9q10 -47 45.5 -71.5t80.5 -24.5q55 0 88 34t33 95q0 63 -34.5 96t-89.5 33q-78 0 -117 -63l-121 10l28 382h430v-110h-328l-13 -183q61 66 164 66z" />
    <glyph glyph-name="six.tosf" horiz-adv-x="630" 
d="M363 459q95 0 156.5 -62.5t61.5 -170.5q0 -112 -67.5 -175t-182.5 -63q-267 0 -267 351q0 185 70 279t198 94q96 0 156 -52t70 -145l-125 -9q-5 45 -31.5 73t-69.5 28q-70 0 -107 -78q-27 -58 -31 -159q55 89 169 89zM329 93q56 0 89 36t33 97t-33 96.5t-89 35.5
q-55 0 -87 -35.5t-32 -96.5t32 -97t87 -36z" />
    <glyph glyph-name="seven.tosf" horiz-adv-x="630" 
d="M67 566h484v-92q-192 -296 -244 -595h-137q54 295 249 577h-352v110z" />
    <glyph glyph-name="eight.tosf" horiz-adv-x="630" 
d="M421 366q70 -20 112 -66t42 -114q0 -95 -76 -146.5t-184 -51.5t-184 51.5t-76 146.5q0 69 42 114.5t114 65.5q-66 17 -102 58.5t-36 104.5q0 88 69.5 135.5t172.5 47.5t172.5 -47.5t69.5 -135.5q0 -126 -136 -163zM315 606q-52 0 -81.5 -25t-29.5 -71q0 -45 29.5 -70.5
t81.5 -25.5t81.5 25.5t29.5 70.5q0 46 -29.5 71t-81.5 25zM315 94q56 0 92.5 28.5t36.5 79.5t-36.5 79.5t-92.5 28.5t-92.5 -28.5t-36.5 -79.5t36.5 -79.5t92.5 -28.5z" />
    <glyph glyph-name="nine.tosf" horiz-adv-x="630" 
d="M297 575q269 0 269 -342q0 -182 -69.5 -273t-198.5 -91q-97 0 -157 50.5t-70 142.5l125 9q6 -44 32 -70.5t70 -26.5q75 0 110 82q27 59 27 152q-54 -87 -169 -87q-95 0 -156.5 60.5t-61.5 164.5q0 106 68.5 167.5t180.5 61.5zM300 222q55 0 88 34t33 90t-33 90t-88 34
t-88 -34t-33 -90t33 -90t88 -34z" />
    <glyph glyph-name="zero.zero" horiz-adv-x="649" 
d="M324 712q134 0 206 -96t72 -266t-72 -266t-206 -96t-206 96t-72 266t72 266t206 96zM324 602q-66 0 -104 -65t-38 -187q0 -65 10 -111l232 306q-36 57 -100 57zM324 98q66 0 104.5 65t38.5 187q0 68 -12 117l-233 -308q38 -61 102 -61z" />
    <glyph glyph-name="zero.osf.zero" horiz-adv-x="639" 
d="M320 576q129 0 203 -78.5t74 -214.5t-74 -214.5t-203 -78.5q-130 0 -204 78t-74 215t74 215t204 78zM320 467q-67 0 -106 -47t-39 -137q0 -43 9 -76l234 222q-37 38 -98 38zM320 99q66 0 105 47t39 137q0 47 -10 80l-235 -223q37 -41 101 -41z" />
    <glyph glyph-name="zero.tf.zero" horiz-adv-x="630" 
d="M315 712q126 0 193.5 -96t67.5 -266t-67.5 -266t-193.5 -96t-193.5 96t-67.5 266t67.5 266t193.5 96zM315 606q-61 0 -96.5 -66.5t-35.5 -189.5q0 -57 10 -110l216 303q-34 63 -94 63zM315 94q61 0 96.5 66.5t35.5 189.5q0 57 -10 110l-217 -303q34 -63 95 -63z" />
    <glyph glyph-name="zero.tosf.zero" horiz-adv-x="630" 
d="M315 576q122 0 192 -78t70 -215t-70 -215t-192 -78t-192 78t-70 215t70 215t192 78zM315 471q-62 0 -98 -48.5t-36 -139.5q0 -39 8 -73l222 215q-35 46 -96 46zM315 95q62 0 98 48.5t36 139.5q0 39 -8 73l-222 -215q35 -46 96 -46z" />
    <glyph glyph-name="zero.dnom" horiz-adv-x="412" 
d="M206 366q80 0 124 -50t44 -139t-44 -139t-124 -50t-124 50t-44 139t44 139t124 50zM206 59q37 0 58.5 30t21.5 88t-21.5 88t-58.5 30t-58.5 -30t-21.5 -88t21.5 -88t58.5 -30z" />
    <glyph glyph-name="one.dnom" horiz-adv-x="266" 
d="M126 360h70v-360h-88v259l-82 -47v90z" />
    <glyph glyph-name="two.dnom" horiz-adv-x="342" 
d="M134 71h185v-71h-305v65l124 97q29 23 43 35t26 29.5t12 33.5q0 18 -13 29.5t-36 11.5q-53 0 -60 -68l-85 6q6 67 45.5 100t99.5 33q59 0 98.5 -28.5t39.5 -83.5q0 -32 -19 -60t-67 -63z" />
    <glyph glyph-name="three.dnom" horiz-adv-x="362" 
d="M297 194q40 -27 40 -83q0 -63 -46.5 -93t-118.5 -30q-68 0 -111 29t-50 88l87 5q8 -51 74 -51q36 0 56.5 13.5t20.5 38.5q0 23 -19 37t-56 14q-23 0 -65 -7v59l102 75h-178v71h292v-64l-117 -75q57 -4 89 -27z" />
    <glyph glyph-name="four.dnom" horiz-adv-x="386" 
d="M304 147h63v-72h-63v-75h-88v75h-201v66l146 219h143v-213zM101 147h115v172z" />
    <glyph glyph-name="five.dnom" horiz-adv-x="371" 
d="M210 238q62 0 99 -30.5t37 -89.5q0 -63 -44.5 -96.5t-117.5 -33.5q-65 0 -109.5 28t-53.5 81l84 6q14 -47 79 -47q36 0 55.5 15.5t19.5 44.5q0 30 -20.5 45.5t-55.5 15.5q-51 0 -74 -30l-77 7l17 206h273v-68h-209l-8 -88q38 34 105 34z" />
    <glyph glyph-name="six.dnom" horiz-adv-x="393" 
d="M230 231q60 0 98.5 -30.5t38.5 -86.5q0 -60 -42.5 -93t-116.5 -33q-81 0 -125.5 46t-44.5 140q0 96 46.5 144t124.5 48q61 0 99 -27t45 -78l-85 -6q-3 17 -18.5 28.5t-40.5 11.5q-47 0 -68 -41q-13 -25 -15 -64q35 41 104 41zM207 59q32 0 52 15.5t20 40.5t-20 40t-52 15
t-51 -15t-19 -40q0 -26 19 -41t51 -15z" />
    <glyph glyph-name="seven.dnom" horiz-adv-x="332" 
d="M17 360h302v-60q-116 -146 -147 -300h-93q33 150 148 289h-210v71z" />
    <glyph glyph-name="eight.dnom" horiz-adv-x="391" 
d="M265 185q95 -21 95 -93q0 -50 -48.5 -77t-116.5 -27t-116.5 27t-48.5 77q0 72 96 93q-84 21 -84 84q0 47 44 72t109 25q66 0 110 -24.5t44 -72.5q0 -63 -84 -84zM195 299q-68 0 -68 -43q0 -20 18.5 -31t49.5 -11t50 11t19 31q0 43 -69 43zM195 55q36 0 57.5 13t21.5 36
t-21.5 36t-57.5 13q-35 0 -57 -13t-22 -36t21.5 -36t57.5 -13z" />
    <glyph glyph-name="nine.dnom" horiz-adv-x="393" 
d="M184 366q170 0 170 -186q0 -97 -45 -144.5t-125 -47.5q-62 0 -100 27t-44 78l85 6q3 -17 18.5 -28.5t40.5 -11.5q44 0 65 37q14 24 17 70q-32 -41 -104 -41q-61 0 -99 29.5t-38 85.5q0 59 42.5 92.5t116.5 33.5zM185 185q32 0 51.5 15t19.5 40t-19.5 40t-51.5 15
t-51.5 -15t-19.5 -40t19.5 -40t51.5 -15z" />
    <glyph glyph-name="zero.numr" horiz-adv-x="412" 
d="M206 712q80 0 124 -50t44 -139t-44 -139t-124 -50t-124 50t-44 139t44 139t124 50zM206 405q37 0 58.5 30t21.5 88t-21.5 88t-58.5 30t-58.5 -30t-21.5 -88t21.5 -88t58.5 -30z" />
    <glyph glyph-name="one.numr" horiz-adv-x="266" 
d="M126 700h70v-360h-88v259l-82 -47v90z" />
    <glyph glyph-name="two.numr" horiz-adv-x="342" 
d="M134 411h185v-71h-305v65l124 97q29 23 43 35t26 29.5t12 33.5q0 18 -13 29.5t-36 11.5q-53 0 -60 -68l-85 6q6 67 45.5 100t99.5 33q59 0 98.5 -28.5t39.5 -83.5q0 -32 -19 -60t-67 -63z" />
    <glyph glyph-name="three.numr" horiz-adv-x="362" 
d="M297 534q40 -27 40 -83q0 -63 -46.5 -93t-118.5 -30q-68 0 -111 29t-50 88l87 5q8 -51 74 -51q36 0 56.5 13.5t20.5 38.5q0 23 -19 37t-56 14q-23 0 -65 -7v59l102 75h-178v71h292v-64l-117 -75q57 -4 89 -27z" />
    <glyph glyph-name="four.numr" horiz-adv-x="386" 
d="M304 487h63v-72h-63v-75h-88v75h-201v66l146 219h143v-213zM101 487h115v172z" />
    <glyph glyph-name="five.numr" horiz-adv-x="371" 
d="M210 579q62 0 99 -30.5t37 -88.5q0 -64 -44.5 -97.5t-117.5 -33.5q-65 0 -109.5 28t-53.5 81l84 6q14 -47 79 -47q36 0 56 16t20 44q0 30 -21 45.5t-56 15.5q-51 0 -74 -29l-77 6l17 206h273v-68h-209l-8 -88q37 34 105 34z" />
    <glyph glyph-name="six.numr" horiz-adv-x="393" 
d="M230 577q60 0 98.5 -30.5t38.5 -86.5q0 -60 -42.5 -93t-116.5 -33q-81 0 -125.5 46t-44.5 140q0 96 46.5 144t124.5 48q61 0 99 -27t45 -78l-85 -6q-3 17 -18.5 28.5t-40.5 11.5q-47 0 -68 -41q-13 -25 -15 -64q35 41 104 41zM207 405q32 0 52 15.5t20 40.5t-20 40
t-52 15t-51 -15t-19 -40q0 -26 19 -41t51 -15z" />
    <glyph glyph-name="seven.numr" horiz-adv-x="332" 
d="M17 700h302v-60q-116 -146 -147 -300h-93q33 150 148 289h-210v71z" />
    <glyph glyph-name="eight.numr" horiz-adv-x="391" 
d="M265 531q95 -21 95 -93q0 -50 -48.5 -77t-116.5 -27t-116.5 27t-48.5 77q0 72 96 93q-84 21 -84 84q0 47 44 72t109 25q66 0 110 -24.5t44 -72.5q0 -63 -84 -84zM195 645q-68 0 -68 -43q0 -20 18.5 -31t49.5 -11t50 11t19 31q0 43 -69 43zM195 401q36 0 57.5 13t21.5 36
t-21.5 36t-57.5 13q-35 0 -57 -13t-22 -36t21.5 -36t57.5 -13z" />
    <glyph glyph-name="nine.numr" horiz-adv-x="393" 
d="M184 712q170 0 170 -186q0 -97 -45 -144.5t-125 -47.5q-62 0 -100 27t-44 78l85 6q3 -17 18.5 -28.5t40.5 -11.5q44 0 65 37q14 24 17 70q-32 -41 -104 -41q-61 0 -99 29.5t-38 85.5q0 59 42.5 92.5t116.5 33.5zM185 531q32 0 51.5 15t19.5 40t-19.5 40t-51.5 15
t-51.5 -15t-19.5 -40t19.5 -40t51.5 -15z" />
    <glyph glyph-name="zero.sups" horiz-adv-x="469" 
d="M42 549q0 105 50 165t143 60t142.5 -59.5t49.5 -165.5t-49.5 -165.5t-142.5 -59.5t-143 59.5t-50 165.5zM146 549q0 -70 24 -105.5t65 -35.5t64.5 35.5t23.5 105.5t-23.5 105t-64.5 35t-65 -35t-24 -105z" />
    <glyph glyph-name="one.sups" horiz-adv-x="306" 
d="M137 764h85v-431h-104v315l-83 -63v103z" />
    <glyph glyph-name="two.sups" horiz-adv-x="385" 
d="M159 416h203v-85h-346v77l137 116q33 28 48.5 42t30 35t14.5 40q0 22 -14 35t-38 13q-58 0 -65 -81l-101 8q6 80 51 119t115 39q66 0 111 -34t45 -99q0 -38 -21 -71t-77 -77z" />
    <glyph glyph-name="three.sups" horiz-adv-x="402" 
d="M315 576q57 -32 57 -106q0 -73 -52 -108.5t-131 -35.5q-75 0 -123 34.5t-56 102.5l101 7q10 -60 78 -60q37 0 58 15.5t21 44.5q0 28 -19.5 44t-58.5 16q-31 0 -70 -8v70l104 88h-189v84h323v-75l-124 -90q52 -5 81 -23z" />
    <glyph glyph-name="four.sups" horiz-adv-x="452" 
d="M357 507h74v-84h-74v-90h-104v90h-235v78l170 263h169v-257zM119 507h134v206z" />
    <glyph glyph-name="five.sups" horiz-adv-x="424" 
d="M241 613q69 0 109.5 -33t40.5 -101q0 -74 -50 -113.5t-131 -39.5q-72 0 -123 33t-60 95l101 7q14 -51 82 -51q35 0 56 18.5t21 50.5q0 33 -22 50.5t-58 17.5q-51 0 -75 -34l-93 9l19 242h306v-84h-228l-8 -102q39 35 113 35z" />
    <glyph glyph-name="six.sups" horiz-adv-x="454" 
d="M267 608q65 0 108 -34t43 -101q0 -70 -49 -109.5t-133 -39.5q-194 0 -194 220q0 116 51 173t145 57q70 0 113.5 -32t50.5 -93l-100 -6q-4 21 -20.5 34t-43.5 13q-52 0 -75 -47q-15 -31 -16 -83q40 48 120 48zM236 408q36 0 57.5 17.5t21.5 47.5q0 31 -21.5 48.5
t-57.5 17.5t-57 -17.5t-21 -48.5q0 -30 21.5 -47.5t56.5 -17.5z" />
    <glyph glyph-name="seven.sups" horiz-adv-x="375" 
d="M18 764h343v-70q-131 -178 -164 -361h-111q37 177 173 347h-241v84z" />
    <glyph glyph-name="eight.sups" horiz-adv-x="448" 
d="M306 560q107 -28 107 -112q0 -61 -55 -92.5t-134 -31.5t-134.5 31.5t-55.5 92.5q0 43 29.5 71t79.5 40q-96 26 -96 101q0 55 51 84.5t126 29.5q74 0 125 -29.5t51 -84.5q0 -76 -94 -100zM224 697q-36 0 -56 -13.5t-20 -38.5t20 -38.5t56 -13.5q35 0 55.5 13.5t20.5 38.5
t-20.5 38.5t-55.5 13.5zM224 401q41 0 64.5 15.5t23.5 43.5t-23.5 43.5t-64.5 15.5t-65 -15.5t-24 -43.5t24 -43.5t65 -15.5z" />
    <glyph glyph-name="nine.sups" horiz-adv-x="454" 
d="M218 774q194 0 194 -220q0 -230 -195 -230q-70 0 -114 31.5t-51 93.5l100 6q4 -21 21 -34t44 -13q54 0 76 52q14 29 14 80q-39 -49 -120 -49q-65 0 -108 34t-43 100q0 70 49 109.5t133 39.5zM218 560q35 0 56.5 17.5t21.5 47.5t-21.5 47.5t-56.5 17.5q-36 0 -57 -17.5
t-21 -47.5t21 -47.5t57 -17.5z" />
    <glyph glyph-name="exclamdown.case" horiz-adv-x="305" 
d="M79 700h147v-151h-147v151zM208 470l13 -470h-137l14 470h110z" />
    <glyph glyph-name="questiondown.case" horiz-adv-x="530" 
d="M356 700v-151h-148v151h148zM260 -12q-99 0 -164 47.5t-65 141.5q0 58 27.5 100t87.5 85q43 30 57.5 48t14.5 47v10h128v-15q0 -55 -17.5 -86.5t-66.5 -62.5q-33 -22 -49 -35t-32.5 -37.5t-16.5 -51.5q0 -40 26.5 -60t69.5 -20q115 0 128 136l125 -9
q-9 -119 -77.5 -178.5t-175.5 -59.5z" />
    <glyph glyph-name="braceleft.case" horiz-adv-x="346" 
d="M237 489q0 -124 -118 -142v-4q118 -16 118 -141v-112q0 -50 20.5 -72t60.5 -22h8v-92h-13q-92 0 -140.5 39.5t-48.5 139.5v104q0 113 -84 113h-9v91h9q84 0 84 112v105q0 100 48.5 139.5t140.5 39.5h13v-92h-8q-81 0 -81 -95v-111z" />
    <glyph glyph-name="braceright.case" horiz-adv-x="346" 
d="M306 391h10v-91h-10q-83 0 -83 -113v-104q0 -100 -48.5 -139.5t-140.5 -39.5h-14v92h9q80 0 80 94v112q0 125 118 141v4q-118 18 -118 142v111q0 95 -80 95h-9v92h14q92 0 140.5 -39.5t48.5 -139.5v-105q0 -112 83 -112z" />
    <glyph glyph-name="bracketleft.case" horiz-adv-x="330" 
d="M310 681h-107v-672h107v-105h-228v883h228v-106z" />
    <glyph glyph-name="bracketright.case" horiz-adv-x="330" 
d="M248 787v-883h-228v105h107v672h-107v106h228z" />
    <glyph glyph-name="parenleft.case" horiz-adv-x="350" 
d="M181 346q0 -274 161 -442h-113q-71 64 -121 174.5t-50 267.5t50 267.5t121 174.5h113q-161 -168 -161 -442z" />
    <glyph glyph-name="parenright.case" horiz-adv-x="350" 
d="M120 788q71 -64 121.5 -174.5t50.5 -267.5t-50.5 -267.5t-121.5 -174.5h-113q162 167 162 442t-162 442h113z" />
    <glyph glyph-name="emdash.case" horiz-adv-x="685" 
d="M52 407h582v-103h-582v103z" />
    <glyph glyph-name="endash.case" horiz-adv-x="556" 
d="M52 407h453v-103h-453v103z" />
    <glyph glyph-name="hyphen.case" horiz-adv-x="377" 
d="M52 407h274v-103h-274v103z" />
    <glyph glyph-name="guillemotleft.case" horiz-adv-x="519" 
d="M280 534l-149 -184l149 -184h-128l-126 159v50l126 159h128zM481 534l-149 -184l149 -184h-128l-126 159v50l126 159h128z" />
    <glyph glyph-name="guillemotright.case" horiz-adv-x="519" 
d="M166 534l126 -159v-50l-126 -159h-128l149 184l-149 184h128zM367 534l126 -159v-50l-126 -159h-128l149 184l-149 184h128z" />
    <glyph glyph-name="guilsinglleft.case" horiz-adv-x="318" 
d="M280 534l-149 -184l149 -184h-128l-126 159v50l126 159h128z" />
    <glyph glyph-name="guilsinglright.case" horiz-adv-x="318" 
d="M166 534l126 -159v-50l-126 -159h-128l149 184l-149 184h128z" />
    <glyph glyph-name="arrowup.ss01" 
d="M401 -12q-152 0 -256 100.5t-104 261.5t104 261.5t256 100.5t256 -100.5t104 -261.5t-104 -261.5t-256 -100.5zM224 309l143 141v-307h67v308l145 -142l-1 89l-177 168l-177 -168v-89z" />
    <glyph glyph-name="uni2197.ss01" 
d="M401 -12q-152 0 -256 100.5t-104 261.5t104 261.5t256 100.5t256 -100.5t104 -261.5t-104 -261.5t-256 -100.5zM236 227l43 -43l221 220l-2 -204l63 64v244h-245l-63 -62l204 4z" />
    <glyph glyph-name="arrowright.ss01" 
d="M401 -12q-152 0 -256 100.5t-104 261.5t104 261.5t256 100.5t256 -100.5t104 -261.5t-104 -261.5t-256 -100.5zM203 319h300l-145 -146h90l167 177l-167 178h-90l145 -147h-300v-62z" />
    <glyph glyph-name="uni2198.ss01" 
d="M401 -12q-152 0 -256 100.5t-104 261.5t104 261.5t256 100.5t256 -100.5t104 -261.5t-104 -261.5t-256 -100.5zM236 473l221 -223l-204 4l63 -62h245v244l-63 64l2 -204l-221 220z" />
    <glyph glyph-name="arrowdown.ss01" 
d="M401 -12q-152 0 -256 100.5t-104 261.5t104 261.5t256 100.5t256 -100.5t104 -261.5t-104 -261.5t-256 -100.5zM224 391v-89l177 -168l177 168l1 89l-145 -142v308h-67v-307z" />
    <glyph glyph-name="uni2199.ss01" 
d="M401 -12q-152 0 -256 100.5t-104 261.5t104 261.5t256 100.5t256 -100.5t104 -261.5t-104 -261.5t-256 -100.5zM566 473l-43 43l-221 -220l2 204l-63 -64v-244h245l63 62l-204 -4z" />
    <glyph glyph-name="arrowleft.ss01" 
d="M401 -12q-152 0 -256 100.5t-104 261.5t104 261.5t256 100.5t256 -100.5t104 -261.5t-104 -261.5t-256 -100.5zM600 319v62h-300l144 147h-89l-168 -178l168 -177h89l-145 146h301z" />
    <glyph glyph-name="uni2196.ss01" 
d="M401 -12q-152 0 -256 100.5t-104 261.5t104 261.5t256 100.5t256 -100.5t104 -261.5t-104 -261.5t-256 -100.5zM566 227l-221 223l204 -4l-63 62h-245v-244l63 -64l-2 204l221 -220z" />
    <glyph glyph-name="arrowboth.ss01" 
d="M401 -12q-152 0 -256 100.5t-104 261.5t104 261.5t256 100.5t256 -100.5t104 -261.5t-104 -261.5t-256 -100.5zM135 350l138 -145h80l-115 116h326l-114 -116h80l137 145l-138 145h-79l114 -116h-326l115 116h-80z" />
    <glyph glyph-name="arrowupdn.ss01" 
d="M401 -12q-152 0 -256 100.5t-104 261.5t104 261.5t256 100.5t256 -100.5t104 -261.5t-104 -261.5t-256 -100.5zM256 222l145 -138l145 138v80l-114 -113v323l114 -113v79l-145 138l-145 -137v-80l114 113v-323l-114 113v-80z" />
    <glyph glyph-name="at.case" horiz-adv-x="863" 
d="M508 548h99v-233q0 -51 15 -75t50 -24q89 0 89 141q0 136 -92 230t-237 94q-139 0 -234.5 -97t-95.5 -237q0 -152 93 -243.5t247 -91.5q115 0 198 47l31 -45q-95 -54 -229 -54q-180 0 -289 105t-109 282q0 166 111.5 276t276.5 110q170 0 278 -106t108 -267
q0 -104 -44 -159t-124 -55q-98 0 -130 79q-22 -44 -58.5 -66.5t-79.5 -22.5q-71 0 -118 57t-47 154t47.5 153.5t118.5 56.5q82 0 125 -71v62zM412 215q44 0 70 36t26 96t-26 96t-70 36t-70 -36t-26 -96t26 -96t70 -36z" />
    <glyph glyph-name="russianfonts" horiz-adv-x="599" 
d="M54 213q0 -65 13 -114q12 -51 32 -80.5t41 -29.5q38 0 85.5 44.5t88.5 121.5q41 78 60 148q2 6 8 31v-288l-34 -23v-23h173v23l-35 23v322l35 24v23h-139q-6 -22 -16 -49q-11 -32 -33 -91q-51 -128 -97 -176q-28 -30 -43 -30q-8 0 -8 40q0 47 17 115q17 65 54 127.5
t77 94.5q37 30 73 39.5t92 9.5h23v6q0 33 -16 72q-17 44 -48 72t-69 28q-66 0 -143 -46q-84 -49 -137.5 -155t-53.5 -259z" />
    </font>
</defs>
</svg>
